Машина времени / The Time Machine (2002) HD-DVD Remux 1080p | D, P, P2, A скачать торрент

Вы посетили страницу нашего torrent трекера и теперь имеете возможность скачать бесплатно через торрент Машина времени / The Time Machine (2002) HD-DVD Remux 1080p | D, P, P2, A в хорошем качестве. Только лучшие релизы, на свободном torrent трекере.

Все раздачи мультитрекерные, даже при нуле сидов, можно качать на максимальной скорости. Скорость скачивания без ограничений !!!

DL-List and Torrent activity [Update пиров]
Size:  18.67 GB   |    Registered:  15 days   |    Completed:  0 times
Seeders:  3  [  0 KB/s  ]   Show peers in full details
 
   
 
 

rico ®

Gender:
Male
Longevity:
2 years 9 months
Posts:
3452

- Название: Машина времени
Оригинальное название: The Time Machine
Год выхода: 2002
Жанр: Фантастика, приключения
Режиссер: Саймон Уэллс
В ролях: Гай Пирс, Джереми Айронс, Сиенна Гиллори, Орландо Джонс, Саманта Мамба, Марк Эдди, Макс Бейкер и др.-О фильме: Профессор Александр Хартдеген изобрел машину времени и отправился в прошлое спасти свою невесту от случайной пули. Но ее смерть предотвратить не удалось — прошлое нельзя изменить. В поисках ответа на вопрос «почему?» Хартдеген забирается на двести лет в будущее и застает Землю в ужасающем состоянии. Получив ранение и впав в беспамятство, он и не заметил, как его машина прошла сквозь восемьсот тысяч лет истории планеты Земля — человечество изменилось, эпоха технократии канула в лету.- -Страна: США
Студия: DreamWorks Pictures
Продолжительность: 01:35:45
Перевод: профессиональный (дублированный), профессиональный (многоголосый), профессиональный (двухголосый), авторский (одноголосый)
Субтитры: русские, английские-Формат: MKV
Качество: HD-DVD Remux 1080p
Видео: MPEG-4 AVC / 23.5 Mbps / 1920x1080 / 23.976 fps
Звук:
Аудио 1: Russian / DTS Audio / 5.1 / 48 kHz / 768 kbps - Дублированный
Аудио 2: Russian / DTS Audio / 5.1 / 48 kHz / 768 kbps - Многоголосый (вариант 1)
Аудио 3: Russian / DD Audio / 5.1 / 48 kHz / 384 kbps - Многоголосый (вариант 2)
Аудио 4: Russian / DD Audio / 5.1 / 48 kHz / 384 kbps - Двухголосый (Гланц и Королёва)
Аудио 5: Russian / DD Audio / 5.1 / 48 kHz / 448 kbps - Авторский (Кузнецов)
Аудио 6: Russian / DD Audio / 5.1 / 48 kHz / 448 kbps - Авторский (Володарский)
Аудио 7: Russian / DD Audio / 5.1 / 48 kHz / 384 kbps - Авторский (Векшин)
Аудио 8: English / DTS Audio / 5.1 / 48 kHz / 768 kbps - Оригинал (Английский)

MediaInfo

Format : Matroska
Format version : Version 2
File size : 18.7 GiB
Duration : 1 h 35 min
Overall bit rate mode : Variable
Overall bit rate : 27.9 Mb/s
Movie name : The Time Machine (2002) HD-DVD Remux =Ved-Uk=
Encoded date : UTC 2018-04-14 11:21:10
Writing application : mkvmerge v4.9.1 (#039;Ich will#039;) сборка от Jul 11 2011 23:53:15
Writing library : libebml v1.2.1 + libmatroska v1.1.1
Video
ID : 1
Format : AVC
Format/Info : Advanced Video Codec
Format profile : [email protected]
Format settings, CABAC : Yes
Format settings, RefFrames : 3 frames
Codec ID : V_MPEG4/ISO/AVC
Duration : 1 h 35 min
Bit rate mode : Variable
Bit rate : 23.5 Mb/s
Maximum bit rate : 40.0 Mb/s
Width : 1 920 pixels
Height : 1 080 pixels
Display aspect ratio : 16:9
Frame rate mode : Constant
Frame rate : 23.976 (24000/1001) FPS
Color space : YUV
Chroma subsampling : 4:2:0
Bit depth : 8 bits
Scan type : Progressive
Bits/(Pixel*Frame) : 0.473
Stream size : 15.4 GiB (83%)
Title : The Time Machine (2002)
Writing library : x264 core 133 r2334 a3ac64b
Encoding settings : cabac=1 / ref=2 / deblock=1:-1:-1 / analyse=0x3:0x133 / me=umh / subme=10 / psy=1 / psy_rd=1.00:0.15 / mixed_ref=1 / me_range=16 / chroma_me=1 / trellis=2 / 8x8dct=1 / cqm=0 / deadzone=21,11 / fast_pskip=1 / chroma_qp_offset=-3 / threads=12 / lookahead_threads=1 / sliced_threads=0 / slices=4 / nr=0 / decimate=1 / interlaced=0 / bluray_compat=1 / constrained_intra=0 / bframes=3 / b_pyramid=1 / b_adapt=2 / b_bias=0 / direct=3 / weightb=1 / open_gop=1 / weightp=1 / keyint=24 / keyint_min=1 / scenecut=40 / intra_refresh=0 / rc_lookahead=24 / rc=2pass / mbtree=1 / bitrate=23523 / ratetol=1.0 / qcomp=0.60 / qpmin=0 / qpmax=69 / qpstep=4 / cplxblur=20.0 / qblur=0.5 / vbv_maxrate=40000 / vbv_bufsize=30000 / nal_hrd=vbr / ip_ratio=1.40 / aq=1:1.00
Language : English
Default : Yes
Forced : No
Color range : Limited
Color primaries : BT.709
Transfer characteristics : BT.709
Matrix coefficients : BT.709
Audio #1
ID : 2
Format : DTS
Format/Info : Digital Theater Systems
Mode : 16
Format settings, Endianness : Big
Codec ID : A_DTS
Duration : 1 h 35 min
Bit rate mode : Constant
Bit rate : 755 kb/s
Channel(s) : 6 channels
Channel positions : Front: L C R, Side: L R, LFE
Sampling rate : 48.0 kHz
Frame rate : 93.750 FPS (512 SPF)
Bit depth : 24 bits
Compression mode : Lossy
Stream size : 517 MiB (3%)
Title : Дубляж
Language : Russian
Default : Yes
Forced : No
Audio #2
ID : 3
Format : DTS
Format/Info : Digital Theater Systems
Mode : 16
Format settings, Endianness : Big
Codec ID : A_DTS
Duration : 1 h 35 min
Bit rate mode : Constant
Bit rate : 755 kb/s
Channel(s) : 6 channels
Channel positions : Front: L C R, Side: L R, LFE
Sampling rate : 48.0 kHz
Frame rate : 93.750 FPS (512 SPF)
Bit depth : 24 bits
Compression mode : Lossy
Stream size : 517 MiB (3%)
Title : Многоголосый (1)
Language : Russian
Default : No
Forced : No
Audio #3
ID : 4
Format : AC-3
Format/Info : Audio Coding 3
Format settings, Endianness : Big
Codec ID : A_AC3
Duration : 1 h 35 min
Bit rate mode : Constant
Bit rate : 384 kb/s
Channel(s) : 6 channels
Channel positions : Front: L C R, Side: L R, LFE
Sampling rate : 48.0 kHz
Frame rate : 31.250 FPS (1536 SPF)
Bit depth : 16 bits
Compression mode : Lossy
Stream size : 263 MiB (1%)
Title : Многоголосый (2)
Language : Russian
Service kind : Complete Main
Default : No
Forced : No
Audio #4
ID : 5
Format : AC-3
Format/Info : Audio Coding 3
Format settings, Endianness : Big
Codec ID : A_AC3
Duration : 1 h 35 min
Bit rate mode : Constant
Bit rate : 384 kb/s
Channel(s) : 6 channels
Channel positions : Front: L C R, Side: L R, LFE
Sampling rate : 48.0 kHz
Frame rate : 31.250 FPS (1536 SPF)
Bit depth : 16 bits
Compression mode : Lossy
Stream size : 263 MiB (1%)
Title : Гланц и Королёва
Language : Russian
Service kind : Complete Main
Default : No
Forced : No
Audio #5
ID : 6
Format : AC-3
Format/Info : Audio Coding 3
Format settings, Endianness : Big
Codec ID : A_AC3
Duration : 1 h 35 min
Bit rate mode : Constant
Bit rate : 448 kb/s
Channel(s) : 6 channels
Channel positions : Front: L C R, Side: L R, LFE
Sampling rate : 48.0 kHz
Frame rate : 31.250 FPS (1536 SPF)
Bit depth : 16 bits
Compression mode : Lossy
Stream size : 307 MiB (2%)
Title : Кузнецов
Language : Russian
Service kind : Complete Main
Default : No
Forced : No
Audio #6
ID : 7
Format : AC-3
Format/Info : Audio Coding 3
Format settings, Endianness : Big
Codec ID : A_AC3
Duration : 1 h 35 min
Bit rate mode : Constant
Bit rate : 448 kb/s
Channel(s) : 6 channels
Channel positions : Front: L C R, Side: L R, LFE
Sampling rate : 48.0 kHz
Frame rate : 31.250 FPS (1536 SPF)
Bit depth : 16 bits
Compression mode : Lossy
Stream size : 307 MiB (2%)
Title : Володарский
Language : Russian
Service kind : Complete Main
Default : No
Forced : No
Audio #7
ID : 8
Format : AC-3
Format/Info : Audio Coding 3
Format settings, Endianness : Big
Codec ID : A_AC3
Duration : 1 h 35 min
Bit rate mode : Constant
Bit rate : 384 kb/s
Channel(s) : 2 channels
Channel positions : Front: L R
Sampling rate : 48.0 kHz
Frame rate : 31.250 FPS (1536 SPF)
Bit depth : 16 bits
Compression mode : Lossy
Stream size : 263 MiB (1%)
Title : Векшин
Language : Russian
Service kind : Complete Main
Default : No
Forced : No
Audio #8
ID : 9
Format : DTS
Format/Info : Digital Theater Systems
Mode : 16
Format settings, Endianness : Big
Codec ID : A_DTS
Duration : 1 h 35 min
Bit rate mode : Constant
Bit rate : 755 kb/s
Channel(s) : 6 channels
Channel positions : Front: L C R, Side: L R, LFE
Sampling rate : 48.0 kHz
Frame rate : 93.750 FPS (512 SPF)
Bit depth : 24 bits
Compression mode : Lossy
Stream size : 517 MiB (3%)
Title : Оргинал
Language : English
Default : No
Forced : No
Text #1
ID : 10
Format : UTF-8
Codec ID : S_TEXT/UTF8
Codec ID/Info : UTF-8 Plain Text
Language : Russian
Default : No
Forced : No
Text #2
ID : 11
Format : UTF-8
Codec ID : S_TEXT/UTF8
Codec ID/Info : UTF-8 Plain Text
Language : English
Default : No
Forced : No
Menu
00:00:00.000 : en:Chapter 01
00:03:33.118 : en:Chapter 02
00:07:26.201 : en:Chapter 03
00:12:00.120 : en:Chapter 04
00:18:13.644 : en:Chapter 05
00:24:55.308 : en:Chapter 06
00:30:07.587 : en:Chapter 07
00:36:20.175 : en:Chapter 08
00:46:07.054 : en:Chapter 09
00:53:21.902 : en:Chapter 10
01:01:23.780 : en:Chapter 11
01:08:10.210 : en:Chapter 12
01:17:32.881 : en:Chapter 13
01:22:34.109 : en:Chapter 14
01:26:24.533 : en:Chapter 15
01:29:53.341 : en:Chapter 16
01:35:39.988 : en:Chapter 17

Скриншоты




[fromtorrent.com].t63352.torrent 
Torrent: Registered [ 2019-06-12 06:10 ] · C9F14B68BAF7F5735803F02D058258EF9A128424

Download .torrent

94 KB

Status: checked
Completed: 0 times
Size: 18.67 GB
Rate: 
(Vote: 0)
Have thanked: 0  Thanks

Скачать через торрент Машина времени / The Time Machine (2002) HD-DVD Remux 1080p | D, P, P2, A в хорошем качестве бесплатно


terms.php
Display posts:    

Current time is: 27-Jun 10:49

All times are UTC + 4



You cannot post new topics in this forum
You cannot reply to topics in this forum
You cannot edit your posts in this forum
You cannot delete your posts in this forum
You cannot vote in polls in this forum
You cannot attach files in this forum
You can download files in this forum

Скачать через торрент фильмы 4K Ultra HD 2160p бесплатно, на первом свободном torrent трекере без надоедливой рекламы. Качаем без ограничений, рейтингов и прочих трудностей. Ищите любимый сериал, у нас вы найдёте множество сериалов, фильмов, игр, музыки. Скачать торрентом не составит труда даже не опытному пользователю. Все торрент файлы доступны к скачиванию только зарегистрированному пользователю. Пройди регистрацию на freetorrent и качай по полной без ограничений. И не забудьте поделиться ссылкой на наш сайт - мы будем очень благодарны. Это даёт нам сил и заряда для жизни проекта.

Ежедневно в мир выходит столько новых картин, что уследить за всеми просто не представляется возможным. На нашем крупнейшем русскоязычном торрент трекере вы сможете без труда скачать фильмы 4к через торрент бесплатно новинки фильмов, не проходя утомительную регистрацию с подтверждением в смс, без назойливой рекламы и перехода по подозрительным ссылкам, все желаемые файлы находятся в открытом доступе и доступны к загрузке без начисления рейтинга. Скачать новинки выгодно не только в финансовом плане, любую загруженную киноленту можно посмотреть в удобное время и в высоком качестве. Самая лучшая подборка кино фильмов 60 fps | UHD 2160p | 4K утолит желание каждого киномана, каталог постоянно пополняется только лучшими релизами. У нас представлена огромная коллекция как недавно вышедших новинок, так и давно полюбившихся бестселлеров. Для того, чтобы получить файл, вам стоит лишь перейти на вкладку искомого материала и скачать нужный торрент и подождать, пока программа перенесет полнометражную картину на компьютер. Главная страница послужит путеводителем и афишей, где можно за несколько минут найти необходимое. Первый русский свободный торрент сделан с максимальным комфортом для пользователя, не нужно тратить время на изучение интерфейса. Желаем вам приятного просмотра! Постоянное обновление и пополнение - новинками популярных игр, новый и безопасный софт, мультимедиа кпк Свободный торрент трекер.