Капитан Марвел / Captain Marvel (2019) UHD BDRip 2160p от селезень | 4K | HDR | iTunes скачать торрент

Вы посетили страницу нашего torrent трекера и теперь имеете возможность скачать бесплатно через торрент Капитан Марвел / Captain Marvel (2019) UHD BDRip 2160p от селезень | 4K | HDR | iTunes в хорошем качестве. Только лучшие релизы, на свободном torrent трекере.

 

Fugu ®

Gender:
Unknown
Longevity:
2 years 6 months
Posts:
1604

Информация о фильме
Название: Капитан Марвел
Оригинальное название: Captain Marvel
Год выхода: 2019
Жанр: Фантастика, боевик, приключения
Режиссер: Анна Боден, Райан Флек
В ролях: Бри Ларсон, Сэмюэл Л. Джексон, Бен Мендельсон, Джуд Лоу, Аннетт Бенинг, Лашана Линч, Кларк Грегг, Рюн Темт, Джемма Чан, Альхенис Перес Сото, Джимон Хонсу, Ли Пейс, Чуку Моду, Мэттью Мехер, Акира Акбар, Марк Догерти, Стивен А. Чанг

О фильме: После столкновения с враждующими инопланетными расами пилот военно-воздушных сил Кэрол Дэнверс обретает суперсилу и становится неуязвимой. Героине предстоит совладать со своими новыми способностями, чтобы противостоять могущественному врагу.
Страна: США
Студия: Walt Disney Pictures, Marvel Studios
Продолжительность: 02:03:41
Перевод: Дублированный | iTunes
Качество: BDRip 2160p
Видео: MPEG-H HEVC HDR Video, 3840x1608, 23000 Kbit/s, 10 bit, 23.976 fps
Звук:
Аудио #01: 48 kHz, AC3, 5.1, 384 Kbps | iTunes | RUS |
Аудио #02: 48 kHz, AC3, 5.1, 640 Kbps | Оригинал | ENG |
Субтитры: Русские (Forced, full, SDH), английские

MI

General
Unique ID : 107227215904006618671375299325942435986 (0x50AB35E9A347F22BAD725F3D929A1092)
Complete name : D:Video111Captain.Marvel.2019.BDRip.2160p.10.bit.HDR.seleZen.mkv
Format : Matroska
Format version : Version 4
File size : 20.8 GiB
Duration : 2 h 3 min
Overall bit rate : 24.0 Mb/s
Movie name : Captain Marvel 2019 from селезень
Encoded date : UTC 2019-06-02 20:44:20
Writing application : mkvmerge v33.1.0 (#039;Primrose#039;) 64-bit
Writing library : libebml v1.3.7 + libmatroska v1.5.0
Video
ID : 1
Format : HEVC
Format/Info : High Efficiency Video Coding
Format profile : Main [email protected]@High
HDR format : SMPTE ST 2086, HDR10 compatible
Codec ID : V_MPEGH/ISO/HEVC
Duration : 2 h 3 min
Bit rate : 23.0 Mb/s
Width : 3 840 pixels
Height : 1 608 pixels
Display aspect ratio : 2.40:1
Frame rate mode : Constant
Frame rate : 23.976 (24000/1001) FPS
Color space : YUV
Chroma subsampling : 4:2:0
Bit depth : 10 bits
Bits/(Pixel*Frame) : 0.155
Stream size : 19.9 GiB (96%)
Title : HQMUX
Writing library : x265 3.0_Au+24-4217e691387c:[Windows][GCC 9.1.1][64 bit] 10bit
Encoding settings : rc=abr / bitrate=23159 / qcomp=0.65 / qpstep=4 / stats-write=0 / stats-read=0 / vbv-maxrate=160000 / vbv-bufsize=160000 / vbv-init=0.9 / qpmax=69 / qpmin=0 / no-lossless / no-cu-lossless / no-hevc-aq / no-aq-motion / aq-mode=2 / aq-strength=1.00 / cbqpoffs=0 / crqpoffs=0 / ipratio=1.40 / pbratio=1.30 / psy-rd=2.00 / psy-rdoq=0.00 / deblock=-2:-2 / ref=3 / limit-refs=3 / no-limit-modes / bframes=8 / b-adapt=2 / bframe-bias=0 / b-pyramid / no-b-intra / weightp / no-weightb / keyint=250 / min-keyint=23 / rc-lookahead=20 / gop-lookahead=0 / scenecut=40 / scenecut-bias=0.05 / ctu=64 / min-cu-size=8 / me=1 / subme=2 / merange=57 / rd=3 / no-rd-refine / no-ssim-rd / dynamic-rd=0.00 / rdoq-level=0 / rdpenalty=0 / cutree / sao / no-limit-sao / no-sao-non-deblock / no-rect / no-amp / open-gop / max-tu-size=32 / tu-inter-depth=1 / tu-intra-depth=1 / limit-tu=0 / qg-size=64 / wpp / no-pmode / no-pme / no-psnr / no-ssim / no-tskip / no-constrained-intra / strong-intra-smoothing / max-merge=2 / nr-intra=0 / nr-inter=0 / input-csp=1 / input-res=3840x1608 / interlace=0 / total-frames=177939 / level-idc=51 / high-tier=1cpuid=1111039 / frame-threads=4 / numa-pools=24 / log-level=2 / uhd-bd=0 / lookahead-slices=8 / radl=0 / no-splice / no-intra-refresh / signhide / temporal-mvp / no-analyze-src-pics / no-early-skip / rskip / no-fast-intra / no-tskip-fast / no-splitrd-skip / zone-count=0 / no-strict-cbr / no-rc-grain / no-const-vbv / no-allow-non-conformance / repeat-headers / annexb / aud / hrd / info / hash=0 / no-temporal-layers / sar=0 / overscan=0 / videoformat=5 / range=0 / colorprim=9 / transfer=16 / colormatrix=9 / chromaloc=0 / display-window=0 / master-display=G(13250,34500)B(7500,3000)R(34000,16000)WP(15635,16450)L(10000000,20) / max-cll=0,0 / min-luma=20 / max-luma=1000 / log2-max-poc-lsb=8 / vui-timing-info / vui-hrd-info / slices=1 / no-opt-qp-pps / no-opt-ref-list-length-pps / no-multi-pass-opt-rps / no-opt-cu-delta-qp / hdr / hdr-opt / no-dhdr10-opt / no-idr-recovery-sei / analysis-reuse-level=5 / scale-factor=0 / refine-intra=0 / refine-inter=0 / refine-mv=0 / refine-ctu-distortion=0 / ctu-info=0 / no-lowpass-dct / refine-analysis-type=0 / copy-pic=1 / max-ausize-factor=1.0 / no-dynamic-refine / no-single-sei / no-svt / qp-adaptation-range=1.00
Language : English
Default : Yes
Forced : No
Color range : Limited
Color primaries : BT.2020
Transfer characteristics : PQ
Matrix coefficients : BT.2020 non-constant
Mastering display color pri : Display P3
Mastering display luminance : min: 0.0020 cd/m2, max: 1000 cd/m2
Audio #1
ID : 2
Format : AC-3
Format/Info : Audio Coding 3
Commercial name : Dolby Digital
Codec ID : A_AC3
Duration : 2 h 3 min
Bit rate mode : Constant
Bit rate : 384 kb/s
Channel(s) : 6 channels
Channel layout : L R C LFE Ls Rs
Sampling rate : 48.0 kHz
Frame rate : 31.250 FPS (1536 SPF)
Bit depth : 16 bits
Compression mode : Lossy
Stream size : 340 MiB (2%)
Title : iTunes
Language : Russian
Service kind : Complete Main
Default : Yes
Forced : Yes
Audio #2
ID : 3
Format : AC-3
Format/Info : Audio Coding 3
Commercial name : Dolby Digital
Codec ID : A_AC3
Duration : 2 h 3 min
Bit rate mode : Constant
Bit rate : 640 kb/s
Channel(s) : 6 channels
Channel layout : L R C LFE Ls Rs
Sampling rate : 48.0 kHz
Frame rate : 31.250 FPS (1536 SPF)
Bit depth : 16 bits
Compression mode : Lossy
Stream size : 566 MiB (3%)
Title : Original
Language : English
Service kind : Complete Main
Default : No
Forced : No
Text #1
ID : 4
Format : UTF-8
Codec ID : S_TEXT/UTF8
Codec ID/Info : UTF-8 Plain Text
Duration : 1 h 55 min
Bit rate : 1 b/s
Count of elements : 17
Stream size : 937 Bytes (0%)
Title : Forced
Language : Russian
Default : Yes
Forced : Yes
Text #2
ID : 5
Format : UTF-8
Codec ID : S_TEXT/UTF8
Codec ID/Info : UTF-8 Plain Text
Duration : 2 h 2 min
Bit rate : 65 b/s
Count of elements : 1314
Stream size : 58.8 KiB (0%)
Title : Full
Language : Russian
Default : No
Forced : No
Text #3
ID : 6
Format : UTF-8
Codec ID : S_TEXT/UTF8
Codec ID/Info : UTF-8 Plain Text
Duration : 2 h 2 min
Bit rate : 77 b/s
Count of elements : 1637
Stream size : 69.2 KiB (0%)
Title : SDH
Language : Russian
Default : No
Forced : No
Text #4
ID : 7
Format : UTF-8
Codec ID : S_TEXT/UTF8
Codec ID/Info : UTF-8 Plain Text
Duration : 1 h 53 min
Bit rate : 47 b/s
Count of elements : 1422
Stream size : 39.6 KiB (0%)
Title : Full
Language : English
Default : No
Forced : No
Text #5
ID : 8
Format : UTF-8
Codec ID : S_TEXT/UTF8
Codec ID/Info : UTF-8 Plain Text
Duration : 2 h 2 min
Bit rate : 50 b/s
Count of elements : 1668
Stream size : 45.1 KiB (0%)
Title : SDH
Language : English
Default : No
Forced : No
Text #6
ID : 9
Format : UTF-8
Codec ID : S_TEXT/UTF8
Codec ID/Info : UTF-8 Plain Text
Duration : 2 h 2 min
Bit rate : 67 b/s
Count of elements : 1665
Stream size : 60.9 KiB (0%)
Title : SDH Colored
Language : English
Default : No
Forced : No
Menu
00:00:00.000 : en:quot;Dreams Againquot;
00:06:51.286 : en:Search And Rescue
00:14:07.055 : en:Memory Manipulation
00:23:17.438 : en:Planet C-53
00:29:37.192 : en:Subway Skrull
00:35:06.938 : en:Searching For Answers
00:44:07.603 : en:Project P.E.G.A.S.U.S.
00:50:42.665 : en:Backup Arrives
00:56:17.791 : en:Reunited
01:03:01.987 : en:Revelation
01:11:16.564 : en:quot;You Are Carol Danversquot;
01:17:48.330 : en:Skrull Survivors
01:27:02.217 : en:quot;Finally Set Freequot;
01:33:21.596 : en:Starforce Battle
01:40:50.962 : en:Ronan#039;s Offensive
01:46:24.253 : en:Taking The Initiative
01:52:49.054 : en:End Credits

Download

Для того, чтобы

Капитан Марвел / Captain Marvel (2019) UHD BDRip 2160p от селезень | 4K | HDR | iTunes

с нашего сайта, Вам необходимо Войти на сайт под своим логином! Если у Вас ещё нет логина, тогда Вам нужно сначала:




How to Download? · What is a torrent? · Ratings and Limitations

Display posts:    

Current time is: 27-Jun 10:31

All times are UTC + 4



You cannot post new topics in this forum
You cannot reply to topics in this forum
You cannot edit your posts in this forum
You cannot delete your posts in this forum
You cannot vote in polls in this forum
You cannot attach files in this forum
You cannot download files in this forum

Скачать через торрент фильмы 4K Ultra HD 2160p бесплатно, на первом свободном torrent трекере без надоедливой рекламы. Качаем без ограничений, рейтингов и прочих трудностей. Ищите любимый сериал, у нас вы найдёте множество сериалов, фильмов, игр, музыки. Скачать торрентом не составит труда даже не опытному пользователю. Все торрент файлы доступны к скачиванию только зарегистрированному пользователю. Пройди регистрацию на freetorrent и качай по полной без ограничений. И не забудьте поделиться ссылкой на наш сайт - мы будем очень благодарны. Это даёт нам сил и заряда для жизни проекта.

Ежедневно в мир выходит столько новых картин, что уследить за всеми просто не представляется возможным. На нашем крупнейшем русскоязычном торрент трекере вы сможете без труда скачать фильмы 4к через торрент бесплатно новинки фильмов, не проходя утомительную регистрацию с подтверждением в смс, без назойливой рекламы и перехода по подозрительным ссылкам, все желаемые файлы находятся в открытом доступе и доступны к загрузке без начисления рейтинга. Скачать новинки выгодно не только в финансовом плане, любую загруженную киноленту можно посмотреть в удобное время и в высоком качестве. Самая лучшая подборка кино фильмов 60 fps | UHD 2160p | 4K утолит желание каждого киномана, каталог постоянно пополняется только лучшими релизами. У нас представлена огромная коллекция как недавно вышедших новинок, так и давно полюбившихся бестселлеров. Для того, чтобы получить файл, вам стоит лишь перейти на вкладку искомого материала и скачать нужный торрент и подождать, пока программа перенесет полнометражную картину на компьютер. Главная страница послужит путеводителем и афишей, где можно за несколько минут найти необходимое. Первый русский свободный торрент сделан с максимальным комфортом для пользователя, не нужно тратить время на изучение интерфейса. Желаем вам приятного просмотра! Постоянное обновление и пополнение - новинками популярных игр, новый и безопасный софт, мультимедиа кпк Свободный торрент трекер.