Академия «Амбрелла» / The Umbrella Academy [S01] (2019) WEBRip 2160p | 4K | HDR | Пифагор скачать торрент

Вы посетили страницу нашего torrent трекера и теперь имеете возможность скачать бесплатно через торрент Академия «Амбрелла» / The Umbrella Academy [S01] (2019) WEBRip 2160p | 4K | HDR | Пифагор в хорошем качестве. Только лучшие релизы, на свободном torrent трекере.

 

leerik ®

Gender:
Unknown
Longevity:
2 years 8 months
Posts:
8284


Информация о фильме
Название: Академия Амбрелла
Оригинальное название: The Umbrella Academy
Год выхода: 2019
Жанр: Фантастика, драма, криминал
Режиссер: Эндрю Бернштейн, Питер Хор, Эллен Кёрас, Стивен Серджик, Джереми Уэбб
В ролях: Эйдан Галлахер, Камерон Бриттон, Иден Кьюпид, Кэмерон Бродер, Итан Хванг, Dante Albidone, Том Хоппер, Дэвид Кастанеда, Роберт Шиэн, Эмми Рэвер-Лэмпман, Эллен Пейдж
О фильме:
Действие разворачивается в альтернативной вселенной. В середине 20-го века 43 женщины, которые до этого не были беременны, одновременно рожают младенцев, наделённых суперспособностями. Пришелец, скрывающийся под личиной сэра Реджинальда Харггривса, спасает семерых новорождённых и создаёт Академию «Амбрелла». Вместе они используют свои таланты для защиты Земли. Годы спустя, после распада Академии, ученики встречаются на похоронах Харггривса. Им предстоит вновь объединиться ради защиты человечества и выступить против одного из бывших соратников по Академии.

Страна: США, Netflix, Dark Horse Entertainment
Продолжительность: 10 x ~ 00:55:00
Перевод: Дублированный [Пифагор по заказу Netflix]
Файл
Формат: MKV
Качество: WEBRip (2160p)
Видео: HEVC, ~ 25 Мбит/с, 3840x1920, 23.976 Кадр/с
Звук:#1 Русский (ЕАС3, 6 ch, 640 Кбит/с)
Звук:#2 Aнглийский (ЕАС3, 6 ch, 640 Кбит/с)

Скриншоты

MI

General
Unique ID : 102430288462342348748806796269168928433 (0x4D0F5B214157AAD14EF184EA259CA6B1)
Complete name : X:ReleasesThe.Umbrella.Academy.S01.HEVC.HDR.2160pThe.Umbrella.Academy.S01E01.WEBRip.Netflix.DUB.HEVC.HDR.2160p.mkv
Format : Matroska
Format version : Version 4
File size : 11.0 GiB
Duration : 58 min 21 s
Overall bit rate : 26.9 Mb/s
Encoded date : UTC 2019-02-25 06:10:16
Writing application : mkvmerge v31.0.0 (#039;Dolores In A Shoestand#039;) 64-bit
Writing library : libebml v1.3.6 + libmatroska v1.4.9
Video
ID : 1
Format : HEVC
Format/Info : High Efficiency Video Coding
Commercial name : HDR10
Format profile : Main [email protected]@High
Codec ID : V_MPEGH/ISO/HEVC
Duration : 58 min 21 s
Bit rate : 25.6 Mb/s
Width : 3 840 pixels
Height : 1 920 pixels
Display aspect ratio : 2.000
Frame rate mode : Constant
Frame rate : 23.976 (24000/1001) FPS
Color space : YUV
Chroma subsampling : 4:2:0 (Type 2)
Bit depth : 10 bits
Bits/(Pixel*Frame) : 0.145
Stream size : 10.4 GiB (95%)
Writing library : x265 3.0+1-ed72af837053:[Windows][GCC 8.2.0][64 bit] 10bit
Encoding settings : cpuid=1111039 / frame-threads=4 / numa-pools=28 / wpp / no-pmode / no-pme / no-psnr / no-ssim / log-level=2 / input-csp=1 / input-res=3840x1920 / interlace=0 / total-frames=83964 / level-idc=51 / high-tier=1 / uhd-bd=0 / ref=4 / no-allow-non-conformance / repeat-headers / annexb / aud / hrd / info / hash=0 / no-temporal-layers / no-open-gop / min-keyint=24 / keyint=240 / gop-lookahead=0 / bframes=4 / b-adapt=2 / b-pyramid / bframe-bias=0 / rc-lookahead=25 / lookahead-slices=4 / scenecut=40 / radl=0 / no-splice / no-intra-refresh / ctu=64 / min-cu-size=8 / rect / no-amp / max-tu-size=32 / tu-inter-depth=1 / tu-intra-depth=1 / limit-tu=0 / rdoq-level=2 / dynamic-rd=0.00 / no-ssim-rd / signhide / no-tskip / nr-intra=0 / nr-inter=0 / no-constrained-intra / no-strong-intra-smoothing / max-merge=3 / limit-refs=3 / limit-modes / me=3 / subme=3 / merange=57 / temporal-mvp / weightp / no-weightb / no-analyze-src-pics / deblock=-3:-3 / no-sao / no-sao-non-deblock / rd=4 / no-early-skip / rskip / no-fast-intra / no-tskip-fast / no-cu-lossless / no-b-intra / no-splitrd-skip / rdpenalty=0 / psy-rd=2.00 / psy-rdoq=1.00 / no-rd-refine / no-lossless / cbqpoffs=0 / crqpoffs=0 / rc=crf / crf=12.0 / qcomp=0.70 / qpstep=4 / stats-write=0 / stats-read=0 / vbv-maxrate=160000 / vbv-bufsize=160000 / vbv-init=0.9 / crf-max=0.0 / crf-min=0.0 / ipratio=1.40 / pbratio=1.30 / aq-mode=1 / aq-strength=1.00 / cutree / zone-count=0 / no-strict-cbr / qg-size=32 / no-rc-grain / qpmax=69 / qpmin=0 / no-const-vbv / sar=1 / overscan=0 / videoformat=5 / range=0 / colorprim=9 / transfer=16 / colormatrix=9 / chromaloc=1 / chromaloc-top=2 / chromaloc-bottom=2 / display-window=0 / master-display=G(13250,34500)B(7500,3000)R(34000,16000)WP(15635,16450)L(10000000,20) / max-cll=1190,432 / min-luma=0 / max-luma=1023 / log2-max-poc-lsb=8 / vui-timing-info / vui-hrd-info / slices=1 / no-opt-qp-pps / no-opt-ref-list-length-pps / no-multi-pass-opt-rps / scenecut-bias=0.05 / no-opt-cu-delta-qp / no-aq-motion / hdr / hdr-opt / no-dhdr10-opt / no-idr-recovery-sei / analysis-reuse-level=5 / scale-factor=0 / refine-intra=0 / refine-inter=0 / refine-mv=0 / refine-ctu-distortion=0 / no-limit-sao / ctu-info=0 / no-lowpass-dct / refine-analysis-type=0 / copy-pic=1 / max-ausize-factor=1.0 / no-dynamic-refine / no-single-sei / no-hevc-aq / qp-adaptation-range=1.00
Default : Yes
Forced : No
Color range : Limited
Color primaries : BT.2020
Transfer characteristics : PQ
Matrix coefficients : BT.2020 non-constant
Mastering display color pri : Display P3
Mastering display luminance : min: 0.0020 cd/m2, max: 1000 cd/m2
Maximum Content Light Level : 1190 cd/m2
Maximum Frame-Average Light : 432 cd/m2
Audio #1
ID : 2
Format : E-AC-3
Format/Info : Enhanced AC-3
Commercial name : Dolby Digital Plus
Codec ID : A_EAC3
Duration : 58 min 21 s
Bit rate mode : Constant
Bit rate : 640 kb/s
Channel(s) : 6 channels
Channel layout : L R C LFE Ls Rs
Sampling rate : 48.0 kHz
Frame rate : 31.250 FPS (1536 SPF)
Compression mode : Lossy
Stream size : 267 MiB (2%)
Title : Дубляж Пифагор
Language : Russian
Service kind : Complete Main
Default : Yes
Forced : No
Audio #2
ID : 3
Format : E-AC-3
Format/Info : Enhanced AC-3
Commercial name : Dolby Digital Plus
Codec ID : A_EAC3
Duration : 58 min 21 s
Bit rate mode : Constant
Bit rate : 640 kb/s
Channel(s) : 6 channels
Channel layout : L R C LFE Ls Rs
Sampling rate : 48.0 kHz
Frame rate : 31.250 FPS (1536 SPF)
Compression mode : Lossy
Delay relative to video : 22 ms
Stream size : 267 MiB (2%)
Title : Original
Language : English
Service kind : Complete Main
Default : No
Forced : No
Text #1
ID : 4
Format : UTF-8
Codec ID : S_TEXT/UTF8
Codec ID/Info : UTF-8 Plain Text
Duration : 58 min 4 s
Bit rate : 6 b/s
Count of elements : 68
Stream size : 2.94 KiB (0%)
Title : Форсированные
Language : Russian
Default : Yes
Forced : No
Text #2
ID : 5
Format : UTF-8
Codec ID : S_TEXT/UTF8
Codec ID/Info : UTF-8 Plain Text
Duration : 58 min 4 s
Bit rate : 69 b/s
Count of elements : 588
Stream size : 29.6 KiB (0%)
Title : Полные
Language : Russian
Default : No
Forced : No
Text #3
ID : 6
Format : UTF-8
Codec ID : S_TEXT/UTF8
Codec ID/Info : UTF-8 Plain Text
Duration : 54 min 56 s
Bit rate : 46 b/s
Count of elements : 606
Stream size : 18.9 KiB (0%)
Language : English
Default : No
Forced : No

Содержание

01. видимся только на свадьбах и похоронах | We Only See Each Other at Weddings and Funerals
02. Беги, парень, беги | Run Boy Run
03. Очень обыкновенный | Extra Ordinary
04. Человек на Луне | Man on the Moon
05. Номер 5 | Number Five
06. День, которого не было | The Day That Wasn#039;t
07. День, который был | The Day That Was
08. Я слышала сплетни | I Heard a Rumor
09. Перемены | Changes
10. Белая скрипка | The White Violin
Download

Для того, чтобы

Академия «Амбрелла» / The Umbrella Academy [S01] (2019) WEBRip 2160p | 4K | HDR | Пифагор

с нашего сайта, Вам необходимо Войти на сайт под своим логином! Если у Вас ещё нет логина, тогда Вам нужно сначала:




How to Download? · What is a torrent? · Ratings and Limitations

Display posts:    

Current time is: 27-Jun 11:03

All times are UTC + 4



You cannot post new topics in this forum
You cannot reply to topics in this forum
You cannot edit your posts in this forum
You cannot delete your posts in this forum
You cannot vote in polls in this forum
You cannot attach files in this forum
You cannot download files in this forum

Скачать через торрент фильмы 4K Ultra HD 2160p бесплатно, на первом свободном torrent трекере без надоедливой рекламы. Качаем без ограничений, рейтингов и прочих трудностей. Ищите любимый сериал, у нас вы найдёте множество сериалов, фильмов, игр, музыки. Скачать торрентом не составит труда даже не опытному пользователю. Все торрент файлы доступны к скачиванию только зарегистрированному пользователю. Пройди регистрацию на freetorrent и качай по полной без ограничений. И не забудьте поделиться ссылкой на наш сайт - мы будем очень благодарны. Это даёт нам сил и заряда для жизни проекта.

Ежедневно в мир выходит столько новых картин, что уследить за всеми просто не представляется возможным. На нашем крупнейшем русскоязычном торрент трекере вы сможете без труда скачать фильмы 4к через торрент бесплатно новинки фильмов, не проходя утомительную регистрацию с подтверждением в смс, без назойливой рекламы и перехода по подозрительным ссылкам, все желаемые файлы находятся в открытом доступе и доступны к загрузке без начисления рейтинга. Скачать новинки выгодно не только в финансовом плане, любую загруженную киноленту можно посмотреть в удобное время и в высоком качестве. Самая лучшая подборка кино фильмов 60 fps | UHD 2160p | 4K утолит желание каждого киномана, каталог постоянно пополняется только лучшими релизами. У нас представлена огромная коллекция как недавно вышедших новинок, так и давно полюбившихся бестселлеров. Для того, чтобы получить файл, вам стоит лишь перейти на вкладку искомого материала и скачать нужный торрент и подождать, пока программа перенесет полнометражную картину на компьютер. Главная страница послужит путеводителем и афишей, где можно за несколько минут найти необходимое. Первый русский свободный торрент сделан с максимальным комфортом для пользователя, не нужно тратить время на изучение интерфейса. Желаем вам приятного просмотра! Постоянное обновление и пополнение - новинками популярных игр, новый и безопасный софт, мультимедиа кпк Свободный торрент трекер.