Убивая Еву / Killing Eve [02х01-07 из 08] (2019) WEB-DL 1080p | TVShows скачать торрент

Вы посетили страницу нашего torrent трекера и теперь имеете возможность скачать бесплатно через торрент Убивая Еву / Killing Eve [02х01-07 из 08] (2019) WEB-DL 1080p | TVShows в хорошем качестве. Только лучшие релизы, на свободном torrent трекере.

Все раздачи мультитрекерные, даже при нуле сидов, можно качать на максимальной скорости. Скорость скачивания без ограничений !!!

DL-List and Torrent activity [Update пиров]
Size:  15.97 GB   |    Registered:  1 month 3 days   |    Completed:  0 times
Seeders:  3  [  0 KB/s  ]   Leechers:  5  [  0 KB/s  ]   Show peers in full details
 
   
 
 

Fugu ®

Gender:
Unknown
Longevity:
2 years 6 months
Posts:
1604


Убивая Еву / Killing Eve
Страна: США Великобритания Италия
Производство: BBC America, Endeavor Content, Sid Gentle Films
Год выпуска: 2019
Жанр: триллер, драма
Продолжительность: х ~00:42:00
Режиссеры: Дэймон Томас, Джон Ист, Гарри Брэдбир
В ролях: Сандра О, Джоди Комер, Фиона Шоу, Ким Бодния, Оуэн МакДоннел, Шон Делани, Генри Ллойд-Хьюз, Нина Сосанья, Эдвард Блюмель, Саймон Торп
Описание: Триллер о наёмной убийце с русскими корнями и мелодичным псевдонимом Вилланель. В ходе очередного задания эта безжалостная особа сталкивается с достойным противником — скромной сотрудницей спецслужб, которая отчаянно хочет изменить свою скучную жизнь...

Перевод: Профессиональный (многоголосый, закадровый) | TVShows
Субтитры: английские-Качество: WEB-DL 1080p
Формат: МКV
Видео кодек: AVC
Аудио кодек: АС3 | E-AC3
Видео: 1920x1080 (16:9), 25.000 fps, MPEG-4 AVC ~6 765 kbps avg
Аудио №1: 48.0 kHz, AC3 Dolby Digital, 3/2 (L,C,R,l,r) + LFE ch, ~384 kbps | RUS / MVO
Аудио №2: 48.0 kHz, Enhanced Audio Coding 3, 3/2 (L,C,R,l,r) + LFE ch, ~640 kbps | ENG
Формат субтитров: UTF-8 Plain Text
Дата премьеры (мир): 7 апреля 2019

Media Info

General
Unique ID : 94396858089289786774060612352113252893 (0x47042C6EC1E3F38FD42BCF307D4E1A1D)
Complete name : Killing.Eve.S02E01.1080p.TVShows.mkv
Format : Matroska
Format version : Version 4 / Version 2
File size : 2.28 GiB
Duration : 41 min 56 s
Overall bit rate : 7 791 kb/s
Encoded date : UTC 2019-04-11 12:24:09
Writing application : mkvmerge v31.0.0 (#039;Dolores In A Shoestand#039;) 64-bit
Writing library : libebml v1.3.6 + libmatroska v1.4.9
Video
ID : 1
Format : AVC
Format/Info : Advanced Video Codec
Format profile : [email protected]
Format settings : CABAC / 4 Ref Frames
Format settings, CABAC : Yes
Format settings, ReFrames : 4 frames
Codec ID : V_MPEG4/ISO/AVC
Duration : 41 min 56 s
Bit rate mode : Constant
Bit rate : 6 765 kb/s
Nominal bit rate : 10 000 kb/s
Width : 1 920 pixels
Height : 1 080 pixels
Display aspect ratio : 16:9
Frame rate mode : Constant
Frame rate : 25.000 FPS
Color space : YUV
Chroma subsampling : 4:2:0
Bit depth : 8 bits
Scan type : Progressive
Bits/(Pixel*Frame) : 0.130
Stream size : 1.98 GiB (87%)
Default : Yes
Forced : No
Color range : Limited
Color primaries : BT.709
Transfer characteristics : BT.709
Matrix coefficients : BT.709
Audio #1
ID : 2
Format : AC-3
Format/Info : Audio Coding 3
Codec ID : A_AC3
Duration : 41 min 56 s
Bit rate mode : Constant
Bit rate : 384 kb/s
Channel(s) : 6 channels
Channel positions : Front: L C R, Side: L R, LFE
Sampling rate : 48.0 kHz
Frame rate : 31.250 FPS (1536 SPF)
Bit depth : 16 bits
Compression mode : Lossy
Stream size : 115 MiB (5%)
Title : TVShows
Language : Russian
Service kind : Complete Main
Default : Yes
Forced : Yes
Audio #2
ID : 3
Format : E-AC-3
Format/Info : Enhanced Audio Coding 3
Codec ID : A_EAC3
Duration : 41 min 56 s
Bit rate mode : Constant
Bit rate : 640 kb/s
Channel(s) : 6 channels
Channel positions : Front: L C R, Side: L R, LFE
Sampling rate : 48.0 kHz
Frame rate : 187.500 FPS (256 SPF)
Compression mode : Lossy
Stream size : 192 MiB (8%)
Title : Original
Language : English
Service kind : Complete Main
Default : No
Forced : No
Text
ID : 4
Format : UTF-8
Codec ID : S_TEXT/UTF8
Codec ID/Info : UTF-8 Plain Text
Duration : 41 min 22 s
Bit rate : 54 b/s
Count of elements : 618
Stream size : 16.4 KiB (0%)
Title : English
Language : English
Default : No
Forced : No

Скриншоты


[fromtorrent.com].t61334.torrent 
Torrent: Registered [ 2019-05-23 17:40 ] · CD27C6BEE5040F9021B07068DDCF839C4AD122F0

Download .torrent

81 KB

Status: checked
Completed: 0 times
Size: 15.97 GB
Rate: 
(Vote: 0)
Have thanked: 0  Thanks

Скачать через торрент Убивая Еву / Killing Eve [02х01-07 из 08] (2019) WEB-DL 1080p | TVShows в хорошем качестве бесплатно


terms.php
Display posts:    

Current time is: 27-Jun 10:23

All times are UTC + 4



You cannot post new topics in this forum
You cannot reply to topics in this forum
You cannot edit your posts in this forum
You cannot delete your posts in this forum
You cannot vote in polls in this forum
You cannot attach files in this forum
You can download files in this forum

Скачать через торрент фильмы 4K Ultra HD 2160p бесплатно, на первом свободном torrent трекере без надоедливой рекламы. Качаем без ограничений, рейтингов и прочих трудностей. Ищите любимый сериал, у нас вы найдёте множество сериалов, фильмов, игр, музыки. Скачать торрентом не составит труда даже не опытному пользователю. Все торрент файлы доступны к скачиванию только зарегистрированному пользователю. Пройди регистрацию на freetorrent и качай по полной без ограничений. И не забудьте поделиться ссылкой на наш сайт - мы будем очень благодарны. Это даёт нам сил и заряда для жизни проекта.

Ежедневно в мир выходит столько новых картин, что уследить за всеми просто не представляется возможным. На нашем крупнейшем русскоязычном торрент трекере вы сможете без труда скачать фильмы 4к через торрент бесплатно новинки фильмов, не проходя утомительную регистрацию с подтверждением в смс, без назойливой рекламы и перехода по подозрительным ссылкам, все желаемые файлы находятся в открытом доступе и доступны к загрузке без начисления рейтинга. Скачать новинки выгодно не только в финансовом плане, любую загруженную киноленту можно посмотреть в удобное время и в высоком качестве. Самая лучшая подборка кино фильмов 60 fps | UHD 2160p | 4K утолит желание каждого киномана, каталог постоянно пополняется только лучшими релизами. У нас представлена огромная коллекция как недавно вышедших новинок, так и давно полюбившихся бестселлеров. Для того, чтобы получить файл, вам стоит лишь перейти на вкладку искомого материала и скачать нужный торрент и подождать, пока программа перенесет полнометражную картину на компьютер. Главная страница послужит путеводителем и афишей, где можно за несколько минут найти необходимое. Первый русский свободный торрент сделан с максимальным комфортом для пользователя, не нужно тратить время на изучение интерфейса. Желаем вам приятного просмотра! Постоянное обновление и пополнение - новинками популярных игр, новый и безопасный софт, мультимедиа кпк Свободный торрент трекер.