Loading...

Счастливого нового дня смерти / Happy Death Day 2U (2019) BDRip 1080p от Переулка Переводмана | D, P, A скачать торрент

Вы посетили страницу нашего torrent трекера и теперь имеете возможность скачать бесплатно через торрент Счастливого нового дня смерти / Happy Death Day 2U (2019) BDRip 1080p от Переулка Переводмана | D, P, A в хорошем качестве. Только лучшие релизы, на свободном torrent трекере.

Все раздачи мультитрекерные, даже при нуле сидов, можно качать на максимальной скорости. Скорость скачивания без ограничений !!!

DL-List and Torrent activity [Update пиров]
Size:  10.26 GB   |    Registered:  8 days   |    Completed:  0 times
Seeders:  2  [  0 KB/s  ]   Leechers:  2  [  0 KB/s  ]   Show peers in full details
 
   
 
 
 

rico ®

Gender:
Male
Longevity:
2 years 8 months
Posts:
2721

Название: Счастливого нового дня смерти
Оригинальное название: Happy Death Day 2U
Год выхода: 2019
Страна: США
Студия: Blumhouse Productions, Dentsu, Digital Riot Media
Продолжительность: 01:39:56
Жанр: ужасы, фантастика, детектив, комедия
Режиссер: Кристофер Лэндон
В ролях: Джессика Рот, Израэль Бруссар, Фи Ву, Сурадж Шарма, Сара Яркин, Рэйчел Мэттьюз, Руби Модин, Стив Зиссис, Чарльз Эйткин, Лаура Клифтон, ...
Перевод:
- Авторский (одноголосый, закадровый) Яроцкий Михаил
- Профессиональный (дублированный) ?
- Профессиональный (многоголосый, закадровый)
- Субтитры
О фильме: Трис справилась с маньяком, пытавшимся убить ее в день ее рождения, и вырвалась из петли времени. Но это не конец, ведь теперь он охотится за ее друзьями. А значит, чтобы победить, Трис снова придется встретиться с ним лицом к лицу и не просто в том же самом дне, но ещё и в параллельной реальности — а всё из-за маленького научного проекта ее друга, Райана!
Смертельная тоска? Нет, бесконечное веселье!…

Кодек: x264
Качество: BDRip 1080p
Видео: 1920x804, 12000 kbps, 23,976 fps
Аудио #1: AC-3, 6 ch, 640 kbps (Rus) - AVO Яроцкий Михаил (kyberpunk)
Аудио #2: AC-3, 6 ch, 384 kbps (Rus) - Dub iTunes
Аудио #3: AC-3, 2 ch, 192 kbps (Rus) - MVO
Аудио #4: DTS, 6 ch, 1509 kbps (Eng)
Субтитры: русские, английские
Спасибо за исходник

Дополнительная информация

Перевод и озвучка Михаила Яроцкого доступны благодаря Переулку Переводмана и dikii
Наложение голоса - Переводман

MediaInfo

x264 [info]: frame I:1275 Avg QP:16.34 size:215748
x264 [info]: frame P:31093 Avg QP:18.52 size:107746
x264 [info]: frame B:111392 Avg QP:20.49 size: 48013
x264 [info]: consecutive B-frames: 2.4% 2.9% 6.5% 21.2% 15.7% 40.8% 5.0% 1.1% 1.1% 1.1% 0.6% 0.2% 0.3% 0.5% 0.6%
Общее
Уникальный идентификатор : 248306433175571157806014938441559727960 (0xBACE145A5A726216A855F0BC76A25F58)
Полное имя : Счастливого нового дня смерти (Happy Death Day 2U) 2019 BDRip 1080p.mkv
Формат : Matroska
Версия формата : Version 2
Размер файла : 10,3 Гбайт
Продолжительность : 1 ч. 39 м.
Общий поток : 14,7 Мбит/сек
Дата кодирования : UTC 2019-05-15 15:59:16
Программа кодирования : mkvmerge v4.0.0 (#039;The Stars were mine#039;) сборка от Jun 6 2010 16:18:42
Библиотека кодирования : libebml v1.0.0 + libmatroska v1.0.0
Видео
Идентификатор : 1
Формат : AVC
Формат/Информация : Advanced Video Codec
Профиль формата : [email protected]
Параметр CABAC формата : Да
Параметр ReFrames формата : 5 кадров
Идентификатор кодека : V_MPEG4/ISO/AVC
Продолжительность : 1 ч. 39 м.
Битрейт : 12,0 Мбит/сек
Ширина : 1920 пикселей
Высота : 804 пикселя
Соотношение сторон : 2,40:1
Режим частоты кадров : Постоянный
Частота кадров : 23,976 (24000/1001) кадра/сек
Цветовое пространство : YUV
Субдискретизация насыщенности : 4:2:0
Битовая глубина : 8 бит
Тип развёртки : Прогрессивная
Бит/(Пиксели*Кадры) : 0.324
Размер потока : 8,16 Гбайт (79%)
Библиотека кодирования : x264 core 146 r2538 121396c
Настройки программы : cabac=1 / ref=5 / deblock=1:-2:-2 / analyse=0x3:0x133 / me=umh / subme=11 / psy=1 / psy_rd=1.00:0.00 / mixed_ref=1 / me_range=32 / chroma_me=1 / trellis=2 / 8x8dct=1 / cqm=0 / deadzone=21,11 / fast_pskip=0 / chroma_qp_offset=-2 / threads=12 / lookahead_threads=2 / sliced_threads=0 / nr=0 / decimate=0 / interlaced=0 / bluray_compat=0 / constrained_intra=0 / bframes=14 / b_pyramid=2 / b_adapt=2 / b_bias=0 / direct=3 / weightb=1 / open_gop=0 / weightp=2 / keyint=240 / keyint_min=23 / scenecut=40 / intra_refresh=0 / rc=2pass / mbtree=0 / bitrate=12000 / ratetol=1.0 / qcomp=0.60 / qpmin=0 / qpmax=69 / qpstep=4 / cplxblur=20.0 / qblur=0.5 / ip_ratio=1.40 / pb_ratio=1.30 / aq=2:0.80
Язык : English
Default : Нет
Forced : Нет
Аудио #1
Идентификатор : 2
Формат : AC-3
Формат/Информация : Audio Coding 3
Расширение режима : CM (complete main)
Параметр Endianness формата : Big
Идентификатор кодека : A_AC3
Продолжительность : 1 ч. 39 м.
Вид битрейта : Постоянный
Битрейт : 640 Кбит/сек
Каналы : 6 каналов
Расположение каналов : Front: L C R, Side: L R, LFE
Частота : 48,0 КГц
Частота кадров : 31,250 кадров/сек (1536 spf)
Метод сжатия : С потерями
Размер потока : 457 Мбайт (4%)
Заголовок : AVO Яроцкий Михаил (kyberpunk)
Язык : Russian
Default : Нет
Forced : Нет
Аудио #2
Идентификатор : 3
Формат : AC-3
Формат/Информация : Audio Coding 3
Расширение режима : CM (complete main)
Параметр Endianness формата : Big
Идентификатор кодека : A_AC3
Продолжительность : 1 ч. 39 м.
Вид битрейта : Постоянный
Битрейт : 384 Кбит/сек
Каналы : 6 каналов
Расположение каналов : Front: L C R, Side: L R, LFE
Частота : 48,0 КГц
Частота кадров : 31,250 кадров/сек (1536 spf)
Метод сжатия : С потерями
Размер потока : 274 Мбайт (3%)
Заголовок : Dub iTunes
Язык : Russian
Default : Нет
Forced : Нет
Аудио #3
Идентификатор : 4
Формат : AC-3
Формат/Информация : Audio Coding 3
Расширение режима : CM (complete main)
Параметр Endianness формата : Big
Идентификатор кодека : A_AC3
Продолжительность : 1 ч. 39 м.
Вид битрейта : Постоянный
Битрейт : 192 Кбит/сек
Каналы : 2 канала
Расположение каналов : Front: L R
Частота : 48,0 КГц
Частота кадров : 31,250 кадров/сек (1536 spf)
Метод сжатия : С потерями
Размер потока : 137 Мбайт (1%)
Заголовок : MVO
Язык : Russian
Default : Нет
Forced : Нет
Аудио #4
Идентификатор : 5
Формат : DTS
Формат/Информация : Digital Theater Systems
Режим : 16
Параметр Endianness формата : Big
Идентификатор кодека : A_DTS
Продолжительность : 1 ч. 39 м.
Вид битрейта : Постоянный
Битрейт : 1509 Кбит/сек
Каналы : 6 каналов
Расположение каналов : Front: L C R, Side: L R, LFE
Частота : 48,0 КГц
Частота кадров : 93,750 кадра/сек (512 spf)
Битовая глубина : 24 бит
Метод сжатия : С потерями
Размер потока : 1,05 Гбайт (10%)
Язык : English
Default : Нет
Forced : Нет
Текст #1
Идентификатор : 6
Формат : UTF-8
Идентификатор кодека : S_TEXT/UTF8
Идентификатор кодека/Информация : UTF-8 Plain Text
Язык : Russian
Default : Нет
Forced : Нет
Текст #2
Идентификатор : 7
Формат : UTF-8
Идентификатор кодека : S_TEXT/UTF8
Идентификатор кодека/Информация : UTF-8 Plain Text
Язык : English
Default : Нет
Forced : Нет
Текст #3
Идентификатор : 8
Формат : UTF-8
Идентификатор кодека : S_TEXT/UTF8
Идентификатор кодека/Информация : UTF-8 Plain Text
Заголовок : SDH
Язык : English
Default : Нет
Forced : Нет
Меню
00:00:00.000 : en:Chapter 01
00:07:42.253 : en:Chapter 02
00:16:01.085 : en:Chapter 03
00:21:16.066 : en:Chapter 04
00:24:21.460 : en:Chapter 05
00:28:44.890 : en:Chapter 06
00:32:34.661 : en:Chapter 07
00:37:15.817 : en:Chapter 08
00:42:02.812 : en:Chapter 09
00:45:35.107 : en:Chapter 10
00:48:37.665 : en:Chapter 11
00:54:27.347 : en:Chapter 12
01:00:36.341 : en:Chapter 13
01:06:24.314 : en:Chapter 14
01:13:19.520 : en:Chapter 15
01:17:47.079 : en:Chapter 16
01:21:31.762 : en:Chapter 17
01:27:36.084 : en:Chapter 18
01:33:02.994 : en:Chapter 19
01:35:05.700 : en:Chapter 20


Loading...
[fromtorrent.com].t60938.torrent 
Torrent: Registered [ 2019-05-15 22:50 ] · 4C960E7B72ECC8DAECAD8C9004516A3F99727D82

Download .torrent

52 KB

Status: checked
Completed: 0 times
Size: 10.26 GB
Rate: 
(Vote: 0)
Have thanked: 0  Thanks

Скачать через торрент Счастливого нового дня смерти / Happy Death Day 2U (2019) BDRip 1080p от Переулка Переводмана | D, P, A в хорошем качестве бесплатно


terms.php
Display posts:    

Current time is: 24-May 09:00

All times are UTC + 4



You cannot post new topics in this forum
You cannot reply to topics in this forum
You cannot edit your posts in this forum
You cannot delete your posts in this forum
You cannot vote in polls in this forum
You cannot attach files in this forum
You can download files in this forum

Скачать через торрент фильмы 4K Ultra HD 2160p бесплатно, на первом свободном torrent трекере без надоедливой рекламы. Качаем без ограничений, рейтингов и прочих трудностей. Ищите любимый сериал, у нас вы найдёте множество сериалов, фильмов, игр, музыки. Скачать торрентом не составит труда даже не опытному пользователю. Все торрент файлы доступны к скачиванию только зарегистрированному пользователю. Пройди регистрацию на freetorrent и качай по полной без ограничений. И не забудьте поделиться ссылкой на наш сайт - мы будем очень благодарны. Это даёт нам сил и заряда для жизни проекта.

Ежедневно в мир выходит столько новых картин, что уследить за всеми просто не представляется возможным. На нашем крупнейшем русскоязычном торрент трекере вы сможете без труда скачать фильмы 4к через торрент бесплатно новинки фильмов, не проходя утомительную регистрацию с подтверждением в смс, без назойливой рекламы и перехода по подозрительным ссылкам, все желаемые файлы находятся в открытом доступе и доступны к загрузке без начисления рейтинга. Скачать новинки выгодно не только в финансовом плане, любую загруженную киноленту можно посмотреть в удобное время и в высоком качестве. Самая лучшая подборка кино фильмов 60 fps | UHD 2160p | 4K утолит желание каждого киномана, каталог постоянно пополняется только лучшими релизами. У нас представлена огромная коллекция как недавно вышедших новинок, так и давно полюбившихся бестселлеров. Для того, чтобы получить файл, вам стоит лишь перейти на вкладку искомого материала и скачать нужный торрент и подождать, пока программа перенесет полнометражную картину на компьютер. Главная страница послужит путеводителем и афишей, где можно за несколько минут найти необходимое. Первый русский свободный торрент сделан с максимальным комфортом для пользователя, не нужно тратить время на изучение интерфейса. Желаем вам приятного просмотра! Постоянное обновление и пополнение - новинками популярных игр, новый и безопасный софт, мультимедиа кпк Свободный торрент трекер.