Loading...

Вымогательство / Extortion (2017) BDRip-AVC от OlLanDGroup | D, L | iTunes скачать торрент

Вы посетили страницу нашего torrent трекера и теперь имеете возможность скачать бесплатно через торрент Вымогательство / Extortion (2017) BDRip-AVC от OlLanDGroup | D, L | iTunes в хорошем качестве. Только лучшие релизы, на свободном torrent трекере.

Все раздачи мультитрекерные, даже при нуле сидов, можно качать на максимальной скорости. Скорость скачивания без ограничений !!!

DL-List and Torrent activity [Update пиров]
Size:  2.32 GB   |    Registered:  8 days   |    Completed:  4 times
Seeders:  2  [  0 KB/s  ]   Show peers in full details
 
   
 
 
 

leerik ®

Gender:
Unknown
Longevity:
2 years 7 months
Posts:
7451

Вымогательство / Extortion
«How much is your family worth?»-

Год выпуска: 2017
Страна: США, Пуэрто Рико, Филиппины
Производство: Filmmuse Productions, Producer Capital Fund
Жанр: Боевик, триллер, драма, криминал, приключения-Режиссёр: Филипп Волкен
В ролях: Эйон Бэйли, Бетани Джой Ленц, Баркхад Абди, Дэнни Гловер, Тим Гриффин, Джек Уоллес, Элид Барриос, Маурицио Алеманьи, Хорхе Кабрера, Генезис Кастро Диас-Перевод: Дублированный | [iTunes], Многоголосый закадровый | [Paradox Omskbird Records]
Субтитры: Русские (полные), Английские (полные, SDH)
Реклама: Отсутствует
Описание: Счастливая семья отправляется отдыхать на Карибы, но вскоре их путешествие прерывается трагедией. Герою придётся бежать наперегонки со временем, чтобы спасти своих жену и сына.
-Качество: BDRip-AVC | BDRemux | Extortion.2017.BDRemux.W
Продолжительность: 01:49:32
Формат: MKV
Видео кодек: MPEG-4 AVC
Аудио кодек: AC3
Видео: 1024x428 (2.40:1), 23,976 fps, x264 ~1 821 kbps avg, 0.173 bit/pixel
Аудио #1: 48 kHz, AC3 Dolby Digital, 3/2 (L,C,R,l,r) + LFE ch, ~384.00 kbps avg | RUS (iTunes)
Аудио #2: 48 kHz, AC3 Dolby Digital, 3/2 (L,C,R,l,r) + LFE ch, ~384.00 kbps avg | RUS (Paradox Omskbird Records)
Аудио #3: 48 kHz, AC3 Dolby Digital, 3/2 (L,C,R,l,r) + LFE ch, ~448.00 kbps avg | ENG-Дата премьеры (мир): 16 мая 2017
Дата премьеры (РФ):
Цифровой релиз: 13 мая 2019, «НД Плэй»

MediaInfo

Общее
Уникальный идентификатор : 334743923225507300286906293649683318309 (0xFBD555A4AFBECBD3CC36AA7C33C90625)
Полное имя : F:Extortion.2017.BDRip(AVC)..mkv
Формат : Matroska
Версия формата : Version 4 / Version 2
Размер файла : 2,32 Гбайт
Продолжительность : 1 ч. 49 м.
Общий поток : 3038 Кбит/сек
Название фильма : Extortion.2017 #TorpedoUK#
Дата кодирования : UTC 2019-05-15 17:03:21
Программа кодирования : mkvmerge v29.0.0 (#039;Like It Or Not#039;) 64-bit
Библиотека кодирования : libebml v1.3.6 + libmatroska v1.4.9
Видео
Идентификатор : 1
Формат : AVC
Формат/Информация : Advanced Video Codec
Профиль формата : [email protected]
Параметр CABAC формата : Да
Параметр ReFrames формата : 10 кадров
Идентификатор кодека : V_MPEG4/ISO/AVC
Продолжительность : 1 ч. 49 м.
Битрейт : 1821 Кбит/сек
Ширина : 1024 пикселя
Высота : 428 пикселей
Соотношение сторон : 2,40:1
Режим частоты кадров : Постоянный
Частота кадров : 23,976 (24000/1001) кадра/сек
Цветовое пространство : YUV
Субдискретизация насыщенности : 4:2:0
Битовая глубина : 8 бит
Тип развёртки : Прогрессивная
Бит/(Пиксели*Кадры) : 0.173
Размер потока : 1,39 Гбайт (60%)
Библиотека кодирования : x264 core 146 r2538 121396c
Настройки программы : cabac=1 / ref=10 / deblock=1:-3:-3 / analyse=0x3:0x113 / me=umh / subme=11 / psy=1 / psy_rd=1.00:0.03 / mixed_ref=1 / me_range=48 / chroma_me=1 / trellis=2 / 8x8dct=1 / cqm=0 / deadzone=21,11 / fast_pskip=1 / chroma_qp_offset=-3 / threads=6 / lookahead_threads=1 / sliced_threads=0 / nr=0 / decimate=1 / interlaced=0 / bluray_compat=0 / constrained_intra=0 / bframes=11 / b_pyramid=2 / b_adapt=2 / b_bias=0 / direct=3 / weightb=1 / open_gop=0 / weightp=2 / keyint=240 / keyint_min=23 / scenecut=40 / intra_refresh=0 / rc_lookahead=40 / rc=2pass / mbtree=0 / bitrate=1821 / ratetol=1.0 / qcomp=0.60 / qpmin=0 / qpmax=69 / qpstep=4 / cplxblur=20.0 / qblur=0.5 / vbv_maxrate=50000 / vbv_bufsize=62500 / nal_hrd=none / filler=0 / ip_ratio=1.40 / pb_ratio=1.30 / aq=1:1.00
Язык : English
Default : Да
Forced : Нет
Аудио #1
Идентификатор : 2
Формат : AC-3
Формат/Информация : Audio Coding 3
Расширение режима : CM (complete main)
Параметр Endianness формата : Big
Идентификатор кодека : A_AC3
Продолжительность : 1 ч. 49 м.
Вид битрейта : Постоянный
Битрейт : 384 Кбит/сек
Каналы : 6 каналов
Расположение каналов : Front: L C R, Side: L R, LFE
Частота : 48,0 КГц
Частота кадров : 31,250 кадров/сек (1536 spf)
Битовая глубина : 16 бит
Метод сжатия : С потерями
Размер потока : 301 Мбайт (13%)
Заголовок : DUB [iTunes]
Язык : Russian
Default : Да
Forced : Нет
Аудио #2
Идентификатор : 3
Формат : AC-3
Формат/Информация : Audio Coding 3
Расширение режима : CM (complete main)
Параметр Endianness формата : Big
Идентификатор кодека : A_AC3
Продолжительность : 1 ч. 49 м.
Вид битрейта : Постоянный
Битрейт : 384 Кбит/сек
Каналы : 6 каналов
Расположение каналов : Front: L C R, Side: L R, LFE
Частота : 48,0 КГц
Частота кадров : 31,250 кадров/сек (1536 spf)
Битовая глубина : 16 бит
Метод сжатия : С потерями
Размер потока : 301 Мбайт (13%)
Заголовок : MVO [Paradox Omskbird records]
Язык : Russian
Default : Нет
Forced : Нет
Аудио #3
Идентификатор : 4
Формат : AC-3
Формат/Информация : Audio Coding 3
Расширение режима : CM (complete main)
Параметр Endianness формата : Big
Идентификатор кодека : A_AC3
Продолжительность : 1 ч. 49 м.
Вид битрейта : Постоянный
Битрейт : 448 Кбит/сек
Каналы : 6 каналов
Расположение каналов : Front: L C R, Side: L R, LFE
Частота : 48,0 КГц
Частота кадров : 31,250 кадров/сек (1536 spf)
Битовая глубина : 16 бит
Метод сжатия : С потерями
Размер потока : 351 Мбайт (15%)
Заголовок : [Original]
Язык : English
Default : Нет
Forced : Нет
Текст #1
Идентификатор : 5
Формат : UTF-8
Идентификатор кодека : S_TEXT/UTF8
Идентификатор кодека/Информация : UTF-8 Plain Text
Продолжительность : 1 ч. 40 м.
Битрейт : 62 бит/сек
Count of elements : 987
Размер потока : 46,2 Кбайт (0%)
Заголовок : Full
Язык : Russian
Default : Нет
Forced : Нет
Текст #2
Идентификатор : 6
Формат : UTF-8
Идентификатор кодека : S_TEXT/UTF8
Идентификатор кодека/Информация : UTF-8 Plain Text
Продолжительность : 1 ч. 40 м.
Битрейт : 48 бит/сек
Count of elements : 883
Размер потока : 35,7 Кбайт (0%)
Заголовок : Full
Язык : English
Default : Нет
Forced : Нет
Текст #3
Идентификатор : 7
Формат : UTF-8
Идентификатор кодека : S_TEXT/UTF8
Идентификатор кодека/Информация : UTF-8 Plain Text
Продолжительность : 1 ч. 43 м.
Битрейт : 50 бит/сек
Count of elements : 976
Размер потока : 38,2 Кбайт (0%)
Заголовок : SDH
Язык : English
Default : Нет
Forced : Нет
Меню
00:00:00.000 : en:Chapter 1
00:15:17.791 : en:Chapter 2
00:27:26.186 : en:Chapter 3
00:40:35.641 : en:Chapter 4
00:54:45.156 : en:Chapter 5
01:07:11.277 : en:Chapter 6
01:20:07.177 : en:Chapter 7
01:31:49.045 : en:Chapter 8

Скриншоты




Loading...
[fromtorrent.com].t60936.torrent 
Torrent: Registered [ 2019-05-15 22:50 ] · C6D50F9602C42492E651CFD4575AE0EA86FC186E

Download .torrent

13 KB

Status: checked
Completed: 4 times
Size: 2.32 GB
Rate: 
(Vote: 0)
Have thanked: 0  Thanks

Скачать через торрент Вымогательство / Extortion (2017) BDRip-AVC от OlLanDGroup | D, L | iTunes в хорошем качестве бесплатно


terms.php
Display posts:    

Current time is: 24-May 09:44

All times are UTC + 4



You cannot post new topics in this forum
You cannot reply to topics in this forum
You cannot edit your posts in this forum
You cannot delete your posts in this forum
You cannot vote in polls in this forum
You cannot attach files in this forum
You can download files in this forum

Скачать через торрент фильмы 4K Ultra HD 2160p бесплатно, на первом свободном torrent трекере без надоедливой рекламы. Качаем без ограничений, рейтингов и прочих трудностей. Ищите любимый сериал, у нас вы найдёте множество сериалов, фильмов, игр, музыки. Скачать торрентом не составит труда даже не опытному пользователю. Все торрент файлы доступны к скачиванию только зарегистрированному пользователю. Пройди регистрацию на freetorrent и качай по полной без ограничений. И не забудьте поделиться ссылкой на наш сайт - мы будем очень благодарны. Это даёт нам сил и заряда для жизни проекта.

Ежедневно в мир выходит столько новых картин, что уследить за всеми просто не представляется возможным. На нашем крупнейшем русскоязычном торрент трекере вы сможете без труда скачать фильмы 4к через торрент бесплатно новинки фильмов, не проходя утомительную регистрацию с подтверждением в смс, без назойливой рекламы и перехода по подозрительным ссылкам, все желаемые файлы находятся в открытом доступе и доступны к загрузке без начисления рейтинга. Скачать новинки выгодно не только в финансовом плане, любую загруженную киноленту можно посмотреть в удобное время и в высоком качестве. Самая лучшая подборка кино фильмов 60 fps | UHD 2160p | 4K утолит желание каждого киномана, каталог постоянно пополняется только лучшими релизами. У нас представлена огромная коллекция как недавно вышедших новинок, так и давно полюбившихся бестселлеров. Для того, чтобы получить файл, вам стоит лишь перейти на вкладку искомого материала и скачать нужный торрент и подождать, пока программа перенесет полнометражную картину на компьютер. Главная страница послужит путеводителем и афишей, где можно за несколько минут найти необходимое. Первый русский свободный торрент сделан с максимальным комфортом для пользователя, не нужно тратить время на изучение интерфейса. Желаем вам приятного просмотра! Постоянное обновление и пополнение - новинками популярных игр, новый и безопасный софт, мультимедиа кпк Свободный торрент трекер.