Loading...

Сотня / The 100 [06х01-03 из 13] (2019) WEBRip 720p | Kelix скачать торрент

Вы посетили страницу нашего torrent трекера и теперь имеете возможность скачать бесплатно через торрент Сотня / The 100 [06х01-03 из 13] (2019) WEBRip 720p | Kelix в хорошем качестве. Только лучшие релизы, на свободном torrent трекере.

Все раздачи мультитрекерные, даже при нуле сидов, можно качать на максимальной скорости. Скорость скачивания без ограничений !!!

DL-List and Torrent activity [Update пиров]
Size:  4.69 GB   |    Registered:  8 days   |    Completed:  0 times
Seeders:  2  [  0 KB/s  ]   Leechers:  2  [  0 KB/s  ]   Show peers in full details
 
   
 
 
 

Fugu ®

Gender:
Unknown
Longevity:
2 years 5 months
Posts:
1145


Информация о фильме
Название: Сотня
Оригинальное название: The 100
Год выхода: 2019
Жанр: фантастика, драма, детектив
Режиссер: Дин Уайт, П.Дж. Пеше, Майрзи Алмас
В ролях: Элайза Тейлор, Пейдж Турко, Томас МакДонелл, Боб Морли, Мари Авгеропулос, Девон Бостик, Линдси Морган, Рики Уиттл, Кристофер Ларкин, Исайя Вашингтон, Генри Иэн Кьюсик
О фильме:
Экранизация одноименного романа Касс Морган. События в сериале начинают разворачиваться по прошествии девяносто семи лет после того как всю цивилизацию уничтожила страшная атомная война. Высоко в космосе на орбите Земли летает большой космический корабль, именно здесь находятся те, кто выжил после страшной катастрофы. Они единственные кто пережил этот ужасный катаклизм который устроило человечество. Именно с этого последнего пристанища людей на Землю отправляют космический челнок на котором находятся сто малолетних преступников…

Страна: США
Студия: Bonanza Productions, Alloy Entertainment, Warner Bros. Television
Продолжительность: 00:45:00 x 3
Перевод: Любительский (двухголосый, закадровый) Kelix
Субтитры: Отсутствуют
Присутствует реклама!
Файл
Качество: WEBRip
Формат: MKV
Видео: 1280x720, 23.976 fps, AVC ~6000 kbps
Звук: 48 kHz, AAC, 2 ch, 512 kbps
Семпл

Скриншоты

Mediainfo:

General
Unique ID : 202204265894973420683757650042643530118 (0x981F2003BC3F6598BDD74E974B1FC186)
Complete name : F:The_100_S06_Sanctum_720p_KelixThe_100_S06E01_Sanctum_720p_Kelix.mkv
Format : Matroska
Format version : Version 4
File size : 1.94 GiB
Duration : 42 min 54 s
Overall bit rate : 6 484 kb/s
Movie name : Mini
Deion : This video is about Mini
Encoded date : UTC 2019-05-03 03:17:33
Writing application : mkvmerge v7.5.0 (#039;Glass Culture#039;) 32bit built on Jan 4 2015 16:37:25
Writing library : libebml v1.3.1 + libmatroska v1.4.2 / Lavf58.12.100
ALBUM_ARTIST : Vadim Skalsky
COM.APPLE.QUICKTIME.AUTHOR : Vadim Skalsky
COM.APPLE.QUICKTIME.DESCRIP : This video is about Mini
COM.APPLE.QUICKTIME.DISPLAY : Mini
COM.APPLE.QUICKTIME.KEYWORD : Full
COM.APPLE.QUICKTIME.TITLE : Mini
KEYWORDS : Full
Video
ID : 1
Format : AVC
Format/Info : Advanced Video Codec
Format profile : [email protected]
Format settings : CABAC / 2 Ref Frames
Format settings, CABAC : Yes
Format settings, ReFrames : 2 frames
Codec ID : V_MPEG4/ISO/AVC
Duration : 42 min 54 s
Bit rate : 5 970 kb/s
Width : 1 280 pixels
Height : 720 pixels
Display aspect ratio : 16:9
Frame rate mode : Constant
Frame rate : 23.976 FPS
Color space : YUV
Chroma subsampling : 4:2:0
Bit depth : 8 bits
Scan type : Progressive
Bits/(Pixel*Frame) : 0.270
Time code of first frame : 00:00:00:00
Time code source : Matroska tags
Stream size : 1.79 GiB (92%)
Writing library : H.264
Default : Yes
Forced : No
Audio
ID : 2
Format : AAC LC
Format/Info : Advanced Audio Codec Low Complexity
Codec ID : A_AAC-2
Duration : 42 min 54 s
Bit rate : 512 kb/s
Channel(s) : 2 channels
Channel layout : L R
Sampling rate : 48.0 kHz
Frame rate : 46.875 FPS (1024 SPF)
Compression mode : Lossy
Delay relative to video : -43 ms
Stream size : 157 MiB (8%)
Language : Russian
Default : Yes
Forced : No

Внимание! Раздача ведётся путём добавления новых серий

Внимание! Раздача ведётся путём добавления новых серий; при каждом добавлении создаётся новый торрент.
Чтобы начать докачку новой серии, пользователям необходимо сделать следующее:
1. Остановить скачивание;
2. Удалить старый торрент у себя из клиента (старые серии удалять не надо);
3. Скачать новый торрент и запустить его у себя в клиенте вместо старого, при этом указать клиенту путь в старую папку куда и должно происходить скачивание новых серий. Ваш клиент при этом должен произвести хеширование (проверку) старой папки и будет докачивать только те серии, которых у вас ещё нет. Старые серии при этом не удаляются, а продолжают раздаваться! Eсли вы уже удалили старые серии, то предотвратить повторную закачку старых серий можно, отжав галочку в соответствующих местах при запуске нового торрента.

Loading...
[fromtorrent.com].t60935.torrent 
Torrent: Registered [ 2019-05-15 20:50 ] · C5233BF0C1A443DC22EDECFBCEBDFAACB41D606A

Download .torrent

13 KB

Status: checked
Completed: 0 times
Size: 4.69 GB
Rate: 
(Vote: 0)
Have thanked: 0  Thanks

Скачать через торрент Сотня / The 100 [06х01-03 из 13] (2019) WEBRip 720p | Kelix в хорошем качестве бесплатно


terms.php
Display posts:    

Current time is: 24-May 09:01

All times are UTC + 4



You cannot post new topics in this forum
You cannot reply to topics in this forum
You cannot edit your posts in this forum
You cannot delete your posts in this forum
You cannot vote in polls in this forum
You cannot attach files in this forum
You can download files in this forum

Скачать через торрент фильмы 4K Ultra HD 2160p бесплатно, на первом свободном torrent трекере без надоедливой рекламы. Качаем без ограничений, рейтингов и прочих трудностей. Ищите любимый сериал, у нас вы найдёте множество сериалов, фильмов, игр, музыки. Скачать торрентом не составит труда даже не опытному пользователю. Все торрент файлы доступны к скачиванию только зарегистрированному пользователю. Пройди регистрацию на freetorrent и качай по полной без ограничений. И не забудьте поделиться ссылкой на наш сайт - мы будем очень благодарны. Это даёт нам сил и заряда для жизни проекта.

Ежедневно в мир выходит столько новых картин, что уследить за всеми просто не представляется возможным. На нашем крупнейшем русскоязычном торрент трекере вы сможете без труда скачать фильмы 4к через торрент бесплатно новинки фильмов, не проходя утомительную регистрацию с подтверждением в смс, без назойливой рекламы и перехода по подозрительным ссылкам, все желаемые файлы находятся в открытом доступе и доступны к загрузке без начисления рейтинга. Скачать новинки выгодно не только в финансовом плане, любую загруженную киноленту можно посмотреть в удобное время и в высоком качестве. Самая лучшая подборка кино фильмов 60 fps | UHD 2160p | 4K утолит желание каждого киномана, каталог постоянно пополняется только лучшими релизами. У нас представлена огромная коллекция как недавно вышедших новинок, так и давно полюбившихся бестселлеров. Для того, чтобы получить файл, вам стоит лишь перейти на вкладку искомого материала и скачать нужный торрент и подождать, пока программа перенесет полнометражную картину на компьютер. Главная страница послужит путеводителем и афишей, где можно за несколько минут найти необходимое. Первый русский свободный торрент сделан с максимальным комфортом для пользователя, не нужно тратить время на изучение интерфейса. Желаем вам приятного просмотра! Постоянное обновление и пополнение - новинками популярных игр, новый и безопасный софт, мультимедиа кпк Свободный торрент трекер.