Loading...

Кунг Фьюри / Kung Fury (2015) WEB-DL 1080p | VHSник скачать торрент

Вы посетили страницу нашего torrent трекера и теперь имеете возможность скачать бесплатно через торрент Кунг Фьюри / Kung Fury (2015) WEB-DL 1080p | VHSник в хорошем качестве. Только лучшие релизы, на свободном torrent трекере.

Все раздачи мультитрекерные, даже при нуле сидов, можно качать на максимальной скорости. Скорость скачивания без ограничений !!!

DL-List and Torrent activity [Update пиров]
Size:  775 MB   |    Registered:  8 days   |    Completed:  0 times
Seeders:  1  [  0 KB/s  ]   Show peers in full details
 
   
 
 
 

rico ®

Gender:
Male
Longevity:
2 years 8 months
Posts:
2721


Информация о фильме
Название: Кунг Фьюри
Оригинальное название: Kung Fury
Год выхода: 2015
Жанр: короткометражка, фантастика, фэнтези, боевик, комедия
Режиссер: Дэвид Сандберг
В ролях: Дэвид Сандберг, Леопольд Нильссон, Steven Chew, Андреас Кахлинг, Erik Hцrnqvist, Элени Янг, Helene Ahlson, Пер-Хенрик Арвидус, Эос Карлссон, Дэвид Хассельхофф
О фильме:
В Майами 80-х появляется самый опасный преступник всех времен — Адольф Гитлер, по прозвищу Кунг Фюрер. Суперкоп Кунг Фьюри решает совершить путешествие во времени в нацистскую Германию, чтобы убить Гитлера и положить конец нацистской империи.

Производство: Швеция / Lampray, Laser Unicorn, Salmon Fox
Продолжительность: 00:31:02
Перевод: Любительский одноголосый (VHSник)
Файл
Кодек: AVC/H.264
Качество: WEB-DL 1080
Видео: 1920x1080, ~3294 kbps, 25.0 fps
Звук: mp3, 2 ch, 128 kbps
Субтитры: нет
Доп. информация: VHSник - озвучки с большой оглядкой на мэтров одноголосых переводов эпохи VHS
Семпл
Время раздачи: 24/7 (Мультитрекерный релиз)

Mediainfo

General
Unique ID : 182655313505125787079673504280762561332 (0x896A223F480341CC566B4CDAC44AB334)
Complete name : D:Кунг Фьюри (2015)_1080p - VHSник.mkv
Format : Matroska
Format version : Version 4 / Version 2
File size : 775 MiB
Duration : 31 min 2 s
Overall bit rate : 3 491 kb/s
Writing application : Lavf57.71.100
Writing library : Lavf57.71.100 / Lavf57.71.100
ErrorDetectionType : Per level 1
Video
ID : 1
Format : AVC
Format/Info : Advanced Video Codec
Format profile : [email protected]
Format settings, CABAC : Yes
Format settings, ReFrames : 2 frames
Codec ID : V_MPEG4/ISO/AVC
Duration : 31 min 2 s
Bit rate : 3 294 kb/s
Width : 1 920 pixels
Height : 1 080 pixels
Display aspect ratio : 16:9
Frame rate mode : Constant
Frame rate : 25.000 FPS
Color space : YUV
Chroma subsampling : 4:2:0
Bit depth : 8 bits
Scan type : Progressive
Bits/(Pixel*Frame) : 0.064
Stream size : 731 MiB (94%)
Default : Yes
Forced : No
DURATION : 00:31:02.320000000
Audio
ID : 2
Format : MPEG Audio
Format version : Version 1
Format profile : Layer 3
Mode : Joint stereo
Mode extension : MS Stereo
Codec ID : A_MPEG/L3
Codec ID/Hint : MP3
Duration : 30 min 53 s
Bit rate mode : Constant
Bit rate : 128 kb/s
Channel(s) : 2 channels
Sampling rate : 44.1 kHz
Compression mode : Lossy
Delay relative to video : -40 ms
Stream size : 28.3 MiB (4%)
Writing library : LAME3.99.5
Language : Russian
Default : Yes
Forced : No
DURATION : 00:30:53.126000000

Скриншоты


Loading...
[fromtorrent.com].t60929.torrent 
Torrent: Registered [ 2019-05-15 18:40 ] · 3F2A4E0B080FCE2FB788B54CF7BF5C8F8C792192

Download .torrent

16 KB

Status: checked
Completed: 0 times
Size: 775 MB
Rate: 
(Vote: 0)
Have thanked: 0  Thanks

Скачать через торрент Кунг Фьюри / Kung Fury (2015) WEB-DL 1080p | VHSник в хорошем качестве бесплатно


terms.php
Display posts:    

Current time is: 24-May 09:49

All times are UTC + 4



You cannot post new topics in this forum
You cannot reply to topics in this forum
You cannot edit your posts in this forum
You cannot delete your posts in this forum
You cannot vote in polls in this forum
You cannot attach files in this forum
You can download files in this forum

Скачать через торрент фильмы 4K Ultra HD 2160p бесплатно, на первом свободном torrent трекере без надоедливой рекламы. Качаем без ограничений, рейтингов и прочих трудностей. Ищите любимый сериал, у нас вы найдёте множество сериалов, фильмов, игр, музыки. Скачать торрентом не составит труда даже не опытному пользователю. Все торрент файлы доступны к скачиванию только зарегистрированному пользователю. Пройди регистрацию на freetorrent и качай по полной без ограничений. И не забудьте поделиться ссылкой на наш сайт - мы будем очень благодарны. Это даёт нам сил и заряда для жизни проекта.

Ежедневно в мир выходит столько новых картин, что уследить за всеми просто не представляется возможным. На нашем крупнейшем русскоязычном торрент трекере вы сможете без труда скачать фильмы 4к через торрент бесплатно новинки фильмов, не проходя утомительную регистрацию с подтверждением в смс, без назойливой рекламы и перехода по подозрительным ссылкам, все желаемые файлы находятся в открытом доступе и доступны к загрузке без начисления рейтинга. Скачать новинки выгодно не только в финансовом плане, любую загруженную киноленту можно посмотреть в удобное время и в высоком качестве. Самая лучшая подборка кино фильмов 60 fps | UHD 2160p | 4K утолит желание каждого киномана, каталог постоянно пополняется только лучшими релизами. У нас представлена огромная коллекция как недавно вышедших новинок, так и давно полюбившихся бестселлеров. Для того, чтобы получить файл, вам стоит лишь перейти на вкладку искомого материала и скачать нужный торрент и подождать, пока программа перенесет полнометражную картину на компьютер. Главная страница послужит путеводителем и афишей, где можно за несколько минут найти необходимое. Первый русский свободный торрент сделан с максимальным комфортом для пользователя, не нужно тратить время на изучение интерфейса. Желаем вам приятного просмотра! Постоянное обновление и пополнение - новинками популярных игр, новый и безопасный софт, мультимедиа кпк Свободный торрент трекер.