Чудо-женщина / Wonder Woman (2017) UHD BDRemux 2160p | 4K | HDR | Лицензия скачать торрент

Вы посетили страницу нашего torrent трекера и теперь имеете возможность скачать бесплатно через торрент Чудо-женщина / Wonder Woman (2017) UHD BDRemux 2160p | 4K | HDR | Лицензия в хорошем качестве. Только лучшие релизы, на свободном torrent трекере.

 

Glix ®

Gender:
Male
Longevity:
2 years 8 months
Posts:
2067

Информация о фильме
Название: Чудо-женщина
Оригинальное название: Wonder Woman
Год выхода: 2017
Жанр: Фэнтези, фантастика, боевик, приключения
Режиссер: Патти Дженкинс
В ролях: Галь Гадот, Робин Райт, Дэвид Тьюлис, Конни Нильсен, Крис Пайн, Елена Анайя, Люси Дэвис, Юэн Бремнер, Даутцен Крёз, Дэнни Хьюстон
О фильме:
Перед тем как стать Чудо-Женщиной, она была Дианой — принцессой амазонок, обученной быть непобедимой воительницей. И когда на берегах ограждённого от внешнего мира райского острова, который служил ей родиной, терпит крушение американский пилот и рассказывает о серьёзном конфликте, бушующем во внешнем мире, Диана покидает свой дом, чтобы справиться с этой угрозой. И там, сражаясь бок о бок с человеком в войне за мир, Диана обнаружит всю полноту своей власти… и своё истинное предназначение.


Страна: США
Студия: Atlas Entertainment, Cruel & Unusual Films, DC Entertainment, Dune Entertainment, Tencent Pictures, WanDa Pictures, Warner Bros. Pictures
Продолжительность: 02:21:15
Перевод: Дублированный | Лицензия
Файл
Качество: BDRemux 2160p
Видео: MPEG-H HEVC HDR Video, 3840x2160, 50.0 Mbit/s, 23.976 fps
Звук:
Аудио #01: 48 kHz, AC3, 5.1, 448 Kbps | Дублированный | RUS |
Аудио #02: 48 kHz, TrueHD, 7.1, 4279 Kbps | Оригинал | ENG |
Аудио #03: 48 kHz, AC3, 5.1, 448 Kbps | Оригинал | ENG |
Субтитры: Русские (forced, full), английские

MI

General
Unique ID : 236021846529847980159896687949544808010 (0xB19027781668576C9A1EBAC23D99DE4A)
Complete name : G:VideoSSDWonder.Woman.2017.BDREMUX.2160p.4K.UltraHD.HEVC.HDR.ExKinoRay.mkv
Format : Matroska
Format version : Version 4 / Version 2
File size : 54.5 GiB
Duration : 2 h 21 min
Overall bit rate mode : Variable
Overall bit rate : 55.2 Mb/s
Movie name : Release by ExKinoRay
Encoded date : UTC 2017-11-02 10:09:36
Writing application : mkvmerge v17.0.0 ('Be Ur Friend') 64-bit
Writing library : libebml v1.3.5 + libmatroska v1.4.8
Cover : Yes
Attachments : cover.jpg
Video
ID : 1
Format : HEVC
Format/Info : High Efficiency Video Coding
Format profile : Main [email protected]@High
Codec ID : V_MPEGH/ISO/HEVC
Duration : 2 h 21 min
Bit rate : 50.0 Mb/s
Width : 3 840 pixels
Height : 2 160 pixels
Display aspect ratio : 16:9
Frame rate mode : Constant
Frame rate : 23.976 (24000/1001) FPS
Color space : YUV
Chroma subsampling : 4:2:0 (Type 2)
Bit depth : 10 bits
Bits/(Pixel*Frame) : 0.251
Stream size : 49.3 GiB (91%)
Writing library : ATEME Titan File 3.8.3 (4.8.3.0)
Language : English
Default : Yes
Forced : No
Color range : Limited
Color primaries : BT.2020
Transfer characteristics : PQ
Matrix coefficients : BT.2020 non-constant
Mastering display color pri : R: x=0.680000 y=0.320000, G: x=0.265000 y=0.690000, B: x=0.150000 y=0.060000, White point: x=0.312700 y=0.329000
Mastering display luminance : min: 0.0050 cd/m2, max: 4000.0000 cd/m2
Maximum Content Light Level : 1721 cd/m2
Maximum Frame-Average Light : 379 cd/m2
Audio #1
ID : 2
Format : AC-3
Format/Info : Audio Coding 3
Format settings, Endianness : Big
Codec ID : A_AC3
Duration : 2 h 21 min
Bit rate mode : Constant
Bit rate : 448 kb/s
Channel(s) : 6 channels
Channel positions : Front: L C R, Side: L R, LFE
Sampling rate : 48.0 kHz
Frame rate : 31.250 FPS (1536 SPF)
Bit depth : 16 bits
Compression mode : Lossy
Stream size : 453 MiB (1%)
Title : Dub [License]
Language : Russian
Service kind : Complete Main
Default : Yes
Forced : No
Audio #2
ID : 3
Format : TrueHD
Format profile : TrueHD+Atmos / TrueHD
Codec ID : A_TRUEHD
Duration : 2 h 21 min
Bit rate mode : Variable
Bit rate : 4 279 kb/s
Maximum bit rate : 7 509 kb/s
Channel(s) : Object Based / 8 channels
Channel positions : Object Based / Front: L C R, Side: L R, Back: L R, LFE
Sampling rate : / 48.0 kHz
Frame rate : 1 200.000 FPS (40 SPF)
Compression mode : Lossless
Stream size : 4.22 GiB (8%)
Title : Original
Language : English
Default : No
Forced : No
Audio #3
ID : 4
Format : AC-3
Format/Info : Audio Coding 3
Format settings, Endianness : Big
Codec ID : A_AC3
Duration : 2 h 21 min
Bit rate mode : Constant
Bit rate : 448 kb/s
Channel(s) : 6 channels
Channel positions : Front: L C R, Side: L R, LFE
Sampling rate : 48.0 kHz
Frame rate : 31.250 FPS (1536 SPF)
Bit depth : 16 bits
Compression mode : Lossy
Stream size : 453 MiB (1%)
Language : English
Service kind : Complete Main
Default : No
Forced : No
Text #1
ID : 5
Format : UTF-8
Codec ID : S_TEXT/UTF8
Codec ID/Info : UTF-8 Plain Text
Duration : 2 h 7 min
Bit rate : 1 b/s
Count of elements : 15
Stream size : 1.08 KiB (0%)
Title : Forced
Language : Russian
Default : Yes
Forced : No
Text #2
ID : 6
Format : UTF-8
Codec ID : S_TEXT/UTF8
Codec ID/Info : UTF-8 Plain Text
Duration : 2 h 12 min
Bit rate : 80 b/s
Count of elements : 1300
Stream size : 78.2 KiB (0%)
Title : Full
Language : Russian
Default : No
Forced : No
Text #3
ID : 7
Format : UTF-8
Codec ID : S_TEXT/UTF8
Codec ID/Info : UTF-8 Plain Text
Duration : 2 h 20 min
Bit rate : 44 b/s
Count of elements : 1586
Stream size : 46.1 KiB (0%)
Title : Full
Language : English
Default : No
Forced : No
Text #4
ID : 8
Format : UTF-8
Codec ID : S_TEXT/UTF8
Codec ID/Info : UTF-8 Plain Text
Duration : 2 h 20 min
Bit rate : 50 b/s
Count of elements : 1827
Stream size : 52.0 KiB (0%)
Title : SDH
Language : English
Default : No
Forced : No
Menu
00:00:00.000 : en:00:00:00.000
00:10:26.918 : en:00:10:26.918
00:23:12.558 : en:00:23:12.558
00:33:10.739 : en:00:33:10.739
00:43:55.132 : en:00:43:55.132
00:54:25.554 : en:00:54:25.554
01:07:38.263 : en:01:07:38.263
01:22:30.195 : en:01:22:30.195
01:34:02.846 : en:01:34:02.846
01:45:37.998 : en:01:45:37.998
01:57:43.765 : en:01:57:43.765
02:10:41.417 : en:02:10:41.417
Download

Для того, чтобы

Чудо-женщина / Wonder Woman (2017) UHD BDRemux 2160p | 4K | HDR | Лицензия

с нашего сайта, Вам необходимо Войти на сайт под своим логином! Если у Вас ещё нет логина, тогда Вам нужно сначала:




How to Download? · What is a torrent? · Ratings and Limitations

Display posts:    

Current time is: 21-May 13:51

All times are UTC + 4



You cannot post new topics in this forum
You cannot reply to topics in this forum
You cannot edit your posts in this forum
You cannot delete your posts in this forum
You cannot vote in polls in this forum
You cannot attach files in this forum
You cannot download files in this forum

Скачать через торрент фильмы 4K Ultra HD 2160p бесплатно, на первом свободном torrent трекере без надоедливой рекламы. Качаем без ограничений, рейтингов и прочих трудностей. Ищите любимый сериал, у нас вы найдёте множество сериалов, фильмов, игр, музыки. Скачать торрентом не составит труда даже не опытному пользователю. Все торрент файлы доступны к скачиванию только зарегистрированному пользователю. Пройди регистрацию на freetorrent и качай по полной без ограничений. И не забудьте поделиться ссылкой на наш сайт - мы будем очень благодарны. Это даёт нам сил и заряда для жизни проекта.

Ежедневно в мир выходит столько новых картин, что уследить за всеми просто не представляется возможным. На нашем крупнейшем русскоязычном торрент трекере вы сможете без труда скачать фильмы 4к через торрент бесплатно новинки фильмов, не проходя утомительную регистрацию с подтверждением в смс, без назойливой рекламы и перехода по подозрительным ссылкам, все желаемые файлы находятся в открытом доступе и доступны к загрузке без начисления рейтинга. Скачать новинки выгодно не только в финансовом плане, любую загруженную киноленту можно посмотреть в удобное время и в высоком качестве. Самая лучшая подборка кино фильмов 60 fps | UHD 2160p | 4K утолит желание каждого киномана, каталог постоянно пополняется только лучшими релизами. У нас представлена огромная коллекция как недавно вышедших новинок, так и давно полюбившихся бестселлеров. Для того, чтобы получить файл, вам стоит лишь перейти на вкладку искомого материала и скачать нужный торрент и подождать, пока программа перенесет полнометражную картину на компьютер. Главная страница послужит путеводителем и афишей, где можно за несколько минут найти необходимое. Первый русский свободный торрент сделан с максимальным комфортом для пользователя, не нужно тратить время на изучение интерфейса. Желаем вам приятного просмотра! Постоянное обновление и пополнение - новинками популярных игр, новый и безопасный софт, мультимедиа кпк Свободный торрент трекер.