Симпсоны / The Simpsons [S15] (2003-2004) WEBRip-HEVC 1080p | 2x2 скачать торрент

Вы посетили страницу нашего torrent трекера и теперь имеете возможность скачать бесплатно через торрент Симпсоны / The Simpsons [S15] (2003-2004) WEBRip-HEVC 1080p | 2x2 в хорошем качестве. Только лучшие релизы, на свободном torrent трекере.

Все раздачи мультитрекерные, даже при нуле сидов, можно качать на максимальной скорости. Скорость скачивания без ограничений !!!

DL-List and Torrent activity [Update пиров]
Size:  4.68 GB   |    Registered:  2 months 11 days   |    Completed:  4 times
Seeders:  1  [  0 KB/s  ]   Leechers:  1  [  0 KB/s  ]   Show peers in full details
 
   
 
 
 

timon ®

Gender:
Male
Longevity:
2 years 8 months
Posts:
1724


Информация о фильме
Название: Симпсоны
Оригинальное название: The Simpsons
Год выхода: 2003-2004
Жанр: Мультфильм, комедия, семейный
Режиссер: Марк Керклэнд, Джефф Линч, Сьюзи Диттер
В ролях: Дэн Кастелланета, Нэнси Картрайт, Гарри Ширер, Джули Кавнер, Ярдли Смит, Хэнк Азария, Памела Хейден, Тресс МакНилл, Карл Видерготт, Мэгги Росвэлл
О фильме:
Мультфильм — пародия на американский уклад жизни. Семейство Симпсонов состоит из пяти членов: папаша Гомер, мать семейства Мардж, их дочери, Лиза и Мэгги, и несносный подросток Барт.

Страна: США
Студия: 20th Century Fox Television, Gracie Films
Продолжительность: ~ 00:22:00
Перевод: Профессиональный (многоголосый, закадровый) 2х2
Файл
Кодек: 1440x1080, 23.976 fps, HEVC, ~1000 kbps, 10bit
Качество: WEBRip-HEVC 1080p | 2x2
Звук: AC3 / 2.0 / 48 kHz / 192 kbps / 16 bit | 2x2
Субтитры: Английские

MediaInfo

General
Unique ID : 193636897972434636111552847431868882801 (0x91AD1C29E64A9AD9A97C171823641F71)
Complete name : Z:VideoThe Simpsons (1080p HEVC)Season 1515x01 - Treehouse of Horror XIV.mkv
Format : Matroska
Format version : Version 4 / Version 2
File size : 218 MiB
Duration : 22 min 1 s
Overall bit rate : 1 384 kb/s
Encoded date : UTC 2016-06-24 12:39:57
Writing application : mkvmerge v9.2.0 (#039;Photograph#039;) 64bit
Writing library : libebml v1.3.3 + libmatroska v1.4.4
Video
ID : 1
Format : HEVC
Format/Info : High Efficiency Video Coding
Format profile : Main [email protected]@Main
Codec ID : V_MPEGH/ISO/HEVC
Duration : 22 min 1 s
Bit rate : 991 kb/s
Width : 1 440 pixels
Height : 1 080 pixels
Display aspect ratio : 4:3
Frame rate mode : Constant
Frame rate : 23.976 (24000/1001) FPS
Color space : YUV
Chroma subsampling : 4:2:0
Bit depth : 10 bits
Bits/(Pixel*Frame) : 0.027
Stream size : 156 MiB (72%)
Writing library : x265 1.7+497-975352b2c022:[Windows][GCC 5.2.0][64 bit] 10bit
Encoding settings : wpp / ctu=64 / min-cu-size=8 / max-tu-size=32 / tu-intra-depth=1 / tu-inter-depth=1 / me=1 / subme=2 / merange=57 / no-rect / no-amp / max-merge=2 / temporal-mvp / no-early-skip / rdpenalty=0 / no-tskip / no-tskip-fast / strong-intra-smoothing / no-lossless / no-cu-lossless / no-constrained-intra / no-fast-intra / open-gop / no-temporal-layers / interlace=0 / keyint=250 / min-keyint=23 / scenecut=40 / rc-lookahead=20 / lookahead-slices=0 / bframes=4 / bframe-bias=0 / b-adapt=2 / ref=3 / limit-refs=0 / weightp / no-weightb / aq-mode=1 / qg-size=32 / aq-strength=1.00 / cbqpoffs=0 / crqpoffs=0 / rd=3 / psy-rd=0.30 / rdoq-level=0 / psy-rdoq=0.00 / signhide / deblock / sao / no-sao-non-deblock / b-pyramid / cutree / rc=2 / pass / bitrate=990 / qcomp=0.60 / qpmin=0 / qpmax=51 / qpstep=4 / cplxblur=20.0 / qblur=0.5 / ipratio=1.40 / pbratio=1.30
Default : Yes
Forced : No
Audio #1
ID : 2
Format : AC-3
Format/Info : Audio Coding 3
Format settings, Endianness : Big
Codec ID : A_AC3
Duration : 22 min 1 s
Bit rate mode : Constant
Bit rate : 192 kb/s
Channel(s) : 2 channels
Channel positions : Front: L R
Sampling rate : 48.0 kHz
Frame rate : 31.250 FPS (1536 SPF)
Bit depth : 16 bits
Compression mode : Lossy
Stream size : 30.2 MiB (14%)
Language : Russian
Service kind : Complete Main
Default : No
Forced : No
Audio #2
ID : 3
Format : AAC
Format/Info : Advanced Audio Codec
Format profile : HE-AAC / LC
Codec ID : A_AAC
Duration : 22 min 1 s
Bit rate : 199 kb/s
Channel(s) : 6 channels
Channel positions : Front: L C R, Side: L R, LFE
Sampling rate : 48.0 kHz / 24.0 kHz
Frame rate : 23.438 FPS (1024 SPF)
Compression mode : Lossy
Delay relative to video : 40 ms
Stream size : 31.4 MiB (14%)
Language : English
Default : Yes
Forced : No
Text
ID : 4
Format : UTF-8
Codec ID : S_TEXT/UTF8
Codec ID/Info : UTF-8 Plain Text
Duration : 21 min 55 s
Bit rate : 81 b/s
Count of elements : 429
Stream size : 13.1 KiB (0%)
Language : English
Default : No
Forced : No
Menu
00:00:00.000 : en:00:00:00.000
00:01:30.424 : en:00:01:30.424
00:03:18.407 : en:00:03:18.407
00:06:48.950 : en:00:06:48.950
00:14:44.092 : en:00:14:44.092
00:21:11.645 : en:00:21:11.645

Скриншоты


[fromtorrent.com].t58782.torrent 
Torrent: Registered [ 2019-04-15 10:50 ] · 4ACB604A1D48EDF4F39CD8D24F059DCAE5612A44

Download .torrent

14 KB

Status: checked
Completed: 4 times
Size: 4.68 GB
Rate: 
(Vote: 0)
Have thanked: 0  Thanks

Скачать через торрент Симпсоны / The Simpsons [S15] (2003-2004) WEBRip-HEVC 1080p | 2x2 в хорошем качестве бесплатно


terms.php
Display posts:    

Current time is: 27-Jun 10:21

All times are UTC + 4



You cannot post new topics in this forum
You cannot reply to topics in this forum
You cannot edit your posts in this forum
You cannot delete your posts in this forum
You cannot vote in polls in this forum
You cannot attach files in this forum
You can download files in this forum

Скачать через торрент фильмы 4K Ultra HD 2160p бесплатно, на первом свободном torrent трекере без надоедливой рекламы. Качаем без ограничений, рейтингов и прочих трудностей. Ищите любимый сериал, у нас вы найдёте множество сериалов, фильмов, игр, музыки. Скачать торрентом не составит труда даже не опытному пользователю. Все торрент файлы доступны к скачиванию только зарегистрированному пользователю. Пройди регистрацию на freetorrent и качай по полной без ограничений. И не забудьте поделиться ссылкой на наш сайт - мы будем очень благодарны. Это даёт нам сил и заряда для жизни проекта.

Ежедневно в мир выходит столько новых картин, что уследить за всеми просто не представляется возможным. На нашем крупнейшем русскоязычном торрент трекере вы сможете без труда скачать фильмы 4к через торрент бесплатно новинки фильмов, не проходя утомительную регистрацию с подтверждением в смс, без назойливой рекламы и перехода по подозрительным ссылкам, все желаемые файлы находятся в открытом доступе и доступны к загрузке без начисления рейтинга. Скачать новинки выгодно не только в финансовом плане, любую загруженную киноленту можно посмотреть в удобное время и в высоком качестве. Самая лучшая подборка кино фильмов 60 fps | UHD 2160p | 4K утолит желание каждого киномана, каталог постоянно пополняется только лучшими релизами. У нас представлена огромная коллекция как недавно вышедших новинок, так и давно полюбившихся бестселлеров. Для того, чтобы получить файл, вам стоит лишь перейти на вкладку искомого материала и скачать нужный торрент и подождать, пока программа перенесет полнометражную картину на компьютер. Главная страница послужит путеводителем и афишей, где можно за несколько минут найти необходимое. Первый русский свободный торрент сделан с максимальным комфортом для пользователя, не нужно тратить время на изучение интерфейса. Желаем вам приятного просмотра! Постоянное обновление и пополнение - новинками популярных игр, новый и безопасный софт, мультимедиа кпк Свободный торрент трекер.