Хладнокровный / Coldblooded (1995) BDRip 720p от KORSAR | P2 скачать торрент

Вы посетили страницу нашего torrent трекера и теперь имеете возможность скачать бесплатно через торрент Хладнокровный / Coldblooded (1995) BDRip 720p от KORSAR | P2 в хорошем качестве. Только лучшие релизы, на свободном torrent трекере.

Все раздачи мультитрекерные, даже при нуле сидов, можно качать на максимальной скорости. Скорость скачивания без ограничений !!!

DL-List and Torrent activity [Update пиров]
Size:  7.09 GB   |    Registered:  2 months 12 days   |    Completed:  0 times
Seeders:  1  [  0 KB/s  ]   Show peers in full details
 
   
 
 
 

rico ®

Gender:
Male
Longevity:
2 years 9 months
Posts:
3452


Информация о фильме
Название: Хладнокровный
Оригинальное название: Coldblooded
Год выпуска: 1995
Выпущено: США, Motion Picture Corporation of America (MPCA), PolyGram Filmed Entertainment, Propaganda Films, Snowback Productions
Жанр: Боевик, триллер, комедия
Режиссер: Уоллес Володарски
В ролях: Джейсон Пристли, Кимберли Уильямс, Питер Ригерт, Роберт Лоджа, Майкл Дж. Фокс, Джей Коген, Джанин Гарофало, Джош Чарльз, Дэвид Энтони Хиггинс, Дорис Грау, Энн Кэрролл
О фильме: Черная комедия о буднях начинающего киллера! Козмо Рейф работал букмекером и принимал незаконные ставки. Но однажды босс, крупный мафиози, по необъяснимым причинам решил его #039;повысить#039; до профессионального убийцы. Парень никогда не держал в руках оружия. Но отказы в таких случаях не принимаются. Наставником ему выделили опытного киллера Стива. Выяснилось, у Козмо незаурядные способности по части стрельбы и молниеносная реакция. К тому же – хладнокровие и железные нервы. Но ему не нравилось убивать. А тут еще Козмо влюбился в преподавательницу йоги Джасмин, да так сильно, что решил покончить с этой работой. Но уйти с этой работы, просто написав заявление, было нельзя…
Продолжительность: 01:32:46
Перевод: Профессиональный двухголосый
Субтитры: Русские, английские
Навигация по главам: Есть
Файл
Качество: BDRip 720p
Видео: MPEG-4 AVC, 9665 Кбит/сек, 1274x690, 23,976 кадра/сек
Аудио #1: AC3, 6 ch, 448 Кбит/сек | Русский, профессиональный (двухголосый закадровый) DVD Group
Аудио #2: AC3, 6 ch, 448 Кбит/сек | Английский, оригинал, DVD
Аудио #3: AC3, 2 ch, 384 Кбит/сек | Английский, оригинал, Blu-ray

Скриншоты

Инфо-файл

x264 [info]: frame I:869 Avg QP:17.53 size:153464
x264 [info]: frame P:24326 Avg QP:19.66 size: 78680
x264 [info]: frame B:108264 Avg QP:21.98 size: 43161
-----------------------------------------------------
Общее
Уникальный идентификатор : 203150518903288784956682834173847849018 (0x98D55DE3CF87D856963F22A41022C83A)
Полное имя : Хладнокровный.1995.BDRip.720p.KORSAR.mkv
Формат : Matroska
Версия формата : Version 2
Размер файла : 7,09 Гбайт
Продолжительность : 1 ч. 32 м.
Общий поток : 10,9 Мбит/сек
Дата кодирования : UTC 2018-11-27 13:59:07
Программа кодирования : mkvmerge v5.8.0 (#039;No Sleep / Pillow#039;) built on Sep 2 2012 15:37:04
Библиотека кодирования : libebml v1.2.3 + libmatroska v1.3.0
Видео
Идентификатор : 1
Формат : AVC
Формат/Информация : Advanced Video Codec
Профиль формата : [email protected]
Настройки формата : CABAC / 9 Ref Frames
Параметр CABAC формата : Да
Параметр RefFrames формата : 9 кадров
Идентификатор кодека : V_MPEG4/ISO/AVC
Продолжительность : 1 ч. 32 м.
Битрейт : 9665 Кбит/сек
Ширина : 1274 пикселя
Высота : 690 пикселей
Соотношение сторон : 1,85:1
Режим частоты кадров : Постоянный
Частота кадров : 23,976 (24000/1001) кадра/сек
Цветовое пространство : YUV
Субдискретизация насыщенности : 4:2:0
Битовая глубина : 8 бит
Тип развёртки : Прогрессивная
Бит/(Пиксели*Кадры) : 0.459
Размер потока : 6,12 Гбайт (86%)
Заголовок : RIP | MZMA
Библиотека кодирования : x264 core 152 r2851kMod ba24899
Настройки программы : cabac=1 / ref=9 / deblock=1:-3:-3 / analyse=0x3:0x113 / me=umh / subme=11 / psy=1 / fade_compensate=0.00 / psy_rd=1.00:0.00 / mixed_ref=1 / me_range=48 / chroma_me=1 / trellis=2 / 8x8dct=1 / cqm=0 / deadzone=21,11 / fast_pskip=0 / chroma_qp_offset=-2 / threads=6 / lookahead_threads=1 / sliced_threads=0 / nr=0 / decimate=0 / interlaced=0 / bluray_compat=0 / constrained_intra=0 / bframes=16 / b_pyramid=2 / b_adapt=2 / b_bias=0 / direct=3 / weightb=1 / open_gop=0 / weightp=2 / keyint=240 / keyint_min=23 / scenecut=40 / intra_refresh=0 / rc_lookahead=40 / rc=2pass / mbtree=0 / bitrate=9665 / ratetol=1.0 / qcomp=0.60 / qpmin=0 / qpmax=69 / qpstep=4 / cplxblur=20.0 / qblur=0.5 / vbv_maxrate=50000 / vbv_bufsize=62500 / nal_hrd=none / filler=0 / ip_ratio=1.40 / pb_ratio=1.30 / aq=1:1.00
Язык : English
По умолчанию : Да
Принудительно : Нет
Цветовой диапазон : Limited
Основные цвета : BT.709
Характеристики трансфера : BT.709
Коэффициенты матрицы : BT.709
Аудио #1
Идентификатор : 2
Формат : AC-3
Формат/Информация : Audio Coding 3
Идентификатор кодека : A_AC3
Продолжительность : 1 ч. 32 м.
Вид битрейта : Постоянный
Битрейт : 448 Кбит/сек
Каналы : 6 каналов
Расположение каналов : Front: L C R, Side: L R, LFE
Частота : 48,0 КГц
Частота кадров : 31,250 кадров/сек (1536 SPF)
Битовая глубина : 16 бит
Метод сжатия : С потерями
Размер потока : 297 Мбайт (4%)
Заголовок : DVO | DVD Group
Язык : Russian
По умолчанию : Да
Принудительно : Нет
Аудио #2
Идентификатор : 3
Формат : AC-3
Формат/Информация : Audio Coding 3
Идентификатор кодека : A_AC3
Продолжительность : 1 ч. 32 м.
Вид битрейта : Постоянный
Битрейт : 448 Кбит/сек
Каналы : 6 каналов
Расположение каналов : Front: L C R, Side: L R, LFE
Частота : 48,0 КГц
Частота кадров : 31,250 кадров/сек (1536 SPF)
Битовая глубина : 16 бит
Метод сжатия : С потерями
Размер потока : 297 Мбайт (4%)
Заголовок : Original | 5.1
Язык : English
По умолчанию : Нет
Принудительно : Нет
Аудио #3
Идентификатор : 4
Формат : AC-3
Формат/Информация : Audio Coding 3
Идентификатор кодека : A_AC3
Продолжительность : 1 ч. 32 м.
Вид битрейта : Постоянный
Битрейт : 384 Кбит/сек
Каналы : 2 канала
Расположение каналов : Front: L R
Частота : 48,0 КГц
Частота кадров : 31,250 кадров/сек (1536 SPF)
Битовая глубина : 16 бит
Метод сжатия : С потерями
Размер потока : 255 Мбайт (4%)
Заголовок : Original | 2.0
Язык : English
По умолчанию : Нет
Принудительно : Нет
Текст #1
Идентификатор : 5
Формат : UTF-8
Идентификатор кодека : S_TEXT/UTF8
Идентификатор кодека/Информация : UTF-8 Plain Text
Язык : Russian
По умолчанию : Нет
Принудительно : Нет
Текст #2
Идентификатор : 6
Формат : UTF-8
Идентификатор кодека : S_TEXT/UTF8
Идентификатор кодека/Информация : UTF-8 Plain Text
Язык : English
По умолчанию : Нет
Принудительно : Нет
Меню
00:00:00.000 : en:Chapter 01
00:02:57.083 : en:Chapter 02
00:07:53.754 : en:Chapter 03
00:15:32.838 : en:Chapter 04
00:25:55.794 : en:Chapter 05
00:31:58.698 : en:Chapter 06
00:37:07.256 : en:Chapter 07
00:40:07.269 : en:Chapter 08
00:44:58.102 : en:Chapter 09
00:48:50.649 : en:Chapter 10
00:54:04.600 : en:Chapter 11
00:58:00.672 : en:Chapter 12
01:00:22.564 : en:Chapter 13
01:08:30.885 : en:Chapter 14
01:12:47.633 : en:Chapter 15
01:17:46.815 : en:Chapter 16
01:20:58.632 : en:Chapter 17
01:24:51.531 : en:Chapter 18
01:28:44.597 : en:Chapter 19
:

[fromtorrent.com].t58779.torrent 
Torrent: Registered [ 2019-04-15 06:50 ] · 8A30D89A9FB6ECBBFC66515C3287F33403CF95A4

Download .torrent

36 KB

Status: checked
Completed: 0 times
Size: 7.09 GB
Rate: 
(Vote: 0)
Have thanked: 0  Thanks

Скачать через торрент Хладнокровный / Coldblooded (1995) BDRip 720p от KORSAR | P2 в хорошем качестве бесплатно


terms.php
Display posts:    

Current time is: 27-Jun 10:39

All times are UTC + 4



You cannot post new topics in this forum
You cannot reply to topics in this forum
You cannot edit your posts in this forum
You cannot delete your posts in this forum
You cannot vote in polls in this forum
You cannot attach files in this forum
You can download files in this forum

Скачать через торрент фильмы 4K Ultra HD 2160p бесплатно, на первом свободном torrent трекере без надоедливой рекламы. Качаем без ограничений, рейтингов и прочих трудностей. Ищите любимый сериал, у нас вы найдёте множество сериалов, фильмов, игр, музыки. Скачать торрентом не составит труда даже не опытному пользователю. Все торрент файлы доступны к скачиванию только зарегистрированному пользователю. Пройди регистрацию на freetorrent и качай по полной без ограничений. И не забудьте поделиться ссылкой на наш сайт - мы будем очень благодарны. Это даёт нам сил и заряда для жизни проекта.

Ежедневно в мир выходит столько новых картин, что уследить за всеми просто не представляется возможным. На нашем крупнейшем русскоязычном торрент трекере вы сможете без труда скачать фильмы 4к через торрент бесплатно новинки фильмов, не проходя утомительную регистрацию с подтверждением в смс, без назойливой рекламы и перехода по подозрительным ссылкам, все желаемые файлы находятся в открытом доступе и доступны к загрузке без начисления рейтинга. Скачать новинки выгодно не только в финансовом плане, любую загруженную киноленту можно посмотреть в удобное время и в высоком качестве. Самая лучшая подборка кино фильмов 60 fps | UHD 2160p | 4K утолит желание каждого киномана, каталог постоянно пополняется только лучшими релизами. У нас представлена огромная коллекция как недавно вышедших новинок, так и давно полюбившихся бестселлеров. Для того, чтобы получить файл, вам стоит лишь перейти на вкладку искомого материала и скачать нужный торрент и подождать, пока программа перенесет полнометражную картину на компьютер. Главная страница послужит путеводителем и афишей, где можно за несколько минут найти необходимое. Первый русский свободный торрент сделан с максимальным комфортом для пользователя, не нужно тратить время на изучение интерфейса. Желаем вам приятного просмотра! Постоянное обновление и пополнение - новинками популярных игр, новый и безопасный софт, мультимедиа кпк Свободный торрент трекер.