Богемская рапсодия / Bohemian Rhapsody (2018) UHD BDRemux 2160p | 4K | HDR | Лицензия скачать торрент

Вы посетили страницу нашего torrent трекера и теперь имеете возможность скачать бесплатно через торрент Богемская рапсодия / Bohemian Rhapsody (2018) UHD BDRemux 2160p | 4K | HDR | Лицензия в хорошем качестве. Только лучшие релизы, на свободном torrent трекере.

 

briqada ®

Gender:
Unknown
Longevity:
2 years 3 months
Posts:
2634

Информация о фильме
Название: Богемская рапсодия
Оригинальное название: Bohemian Rhapsody
Год выхода: 2018
Жанр: Драма, биография, музыка
Режиссер: Брайан Сингер
В ролях: Рами Малек, Люси Бойнтон, Гвилим Ли, Бен Харди, Джозеф Маццелло, Майк Майерс, Эйден Гиллен, Том Холландер, Аллен Лич, Аарон МакКаскер, Эйс Бхатти, Прия Блэкберн, Дермот Мерфи, Тим Плестер, Дики Бо

О фильме: Чествование группы Queen, их музыки и их выдающегося вокалиста Фредди Меркьюри, который бросил вызов стереотипам и победил условности, чтобы стать одним из самых любимых артистов на планете. Фильм прослеживает головокружительный путь группы к успеху, благодаря их культовым песням и революционному звуку, практически распад коллектива, поскольку образ жизни Меркьюри выходит из-под контроля, и их триумфальное воссоединение накануне концерта Live Aid, ставшим одним из величайших выступлений в истории рок-музыки.

Страна: Великобритания, США
Студия: GK Films, New Regency Pictures, Queen Films Ltd.
Продолжительность: 02:14:37
Перевод: Дублированный | Лицензия
Качество: BDRemux 2160p
Видео: MPEG-H HEVC HDR Video, 3840x2160, 37200 Kbit/s, 23.976 fps
Звук:
Аудио #01: 48 kHz, DTS, 5.1, 768 Kbps | Дублированный | RUS |
Аудио #02: 48 kHz, AC3, 5.1, 448 Kbps | Дублированный | UKR |
Аудио #03: 48 kHz, TrueHD, 7.1, 4611 Kbps | Оригинал | ENG |
Аудио #04: 48 kHz, AC3, 5.1, 640 Kbps | Оригинал | ENG |
Субтитры: Русские (Forced, full), украинские (Forced, full), английские (SDH, SDH Colored)

MI

General
Unique ID : 99036887034278326593525522223229208466 (0x4A81CF85B2B759BC887CC12D218A8792)
Complete name : D:Video111Bohemian.Rhapsody.2018.Lic.BDREMUX.2160p.HDR.seleZen.mkv
Format : Matroska
Format version : Version 4
File size : 41.1 GiB
Duration : 2 h 14 min
Overall bit rate mode : Variable
Overall bit rate : 43.7 Mb/s
Movie name : Bohemian Rhapsody 4K 2018 from селезень
Encoded date : UTC 2019-02-07 20:13:47
Writing application : mkvmerge v29.0.0 (#039;Like It Or Not#039;) 64-bit
Writing library : libebml v1.3.6 + libmatroska v1.4.9
Video
ID : 1
Format : HEVC
Format/Info : High Efficiency Video Coding
Commercial name : HDR10
Format profile : Main 10@L5.1@High
Codec ID : V_MPEGH/ISO/HEVC
Duration : 2 h 14 min
Bit rate : 37.2 Mb/s
Width : 3 840 pixels
Height : 2 160 pixels
Display aspect ratio : 16:9
Frame rate mode : Constant
Frame rate : 23.976 (24000/1001) FPS
Color space : YUV
Chroma subsampling : 4:2:0 (Type 2)
Bit depth : 10 bits
Bits/(Pixel*Frame) : 0.187
Stream size : 35.0 GiB (85%)
Language : English
Default : Yes
Forced : No
Color range : Limited
Color primaries : BT.2020
Transfer characteristics : PQ
Matrix coefficients : BT.2020 non-constant
Mastering display color pri : Display P3
Mastering display luminance : min: 0.0050 cd/m2, max: 1000 cd/m2
Audio #1
ID : 2
Format : DTS
Format/Info : Digital Theater Systems
Codec ID : A_DTS
Duration : 2 h 14 min
Bit rate mode : Constant
Bit rate : 768 kb/s
Channel(s) : 6 channels
Channel layout : C L R Ls Rs LFE
Sampling rate : 48.0 kHz
Frame rate : 93.750 FPS (512 SPF)
Bit depth : 24 bits
Compression mode : Lossy
Stream size : 739 MiB (2%)
Title : Dub [License]
Language : Russian
Default : Yes
Forced : Yes
Audio #2
ID : 3
Format : AC-3
Format/Info : Audio Coding 3
Commercial name : Dolby Digital
Codec ID : A_AC3
Duration : 2 h 14 min
Bit rate mode : Constant
Bit rate : 448 kb/s
Channel(s) : 6 channels
Channel layout : L R C LFE Ls Rs
Sampling rate : 48.0 kHz
Frame rate : 31.250 FPS (1536 SPF)
Bit depth : 16 bits
Compression mode : Lossy
Stream size : 431 MiB (1%)
Title : License
Language : Ukrainian
Service kind : Complete Main
Default : No
Forced : No
Audio #3
ID : 4
Format : MLP FBA 16-ch
Format/Info : Meridian Lossless Packing FBA with 16-channel presentation
Commercial name : Dolby TrueHD with Dolby Atmos
Codec ID : A_TRUEHD
Duration : 2 h 14 min
Bit rate mode : Variable
Bit rate : 4 611 kb/s
Maximum bit rate : 8 277 kb/s
Channel(s) : 8 channels
Channel layout : L R C LFE Ls Rs Lb Rb
Sampling rate : 48.0 kHz
Frame rate : 1 200.000 FPS (40 SPF)
Compression mode : Lossless
Stream size : 4.34 GiB (11%)
Title : Original
Language : English
Default : No
Forced : No
Number of dynamic objects : 13
Bed channel count : 1 channel
Bed channel configuration : LFE
Audio #4
ID : 5
Format : AC-3
Format/Info : Audio Coding 3
Commercial name : Dolby Digital
Codec ID : A_AC3
Duration : 2 h 14 min
Bit rate mode : Constant
Bit rate : 640 kb/s
Channel(s) : 6 channels
Channel layout : L R C LFE Ls Rs
Sampling rate : 48.0 kHz
Frame rate : 31.250 FPS (1536 SPF)
Bit depth : 16 bits
Compression mode : Lossy
Stream size : 616 MiB (1%)
Language : English
Service kind : Complete Main
Default : No
Forced : No
Text #1
ID : 6
Format : UTF-8
Codec ID : S_TEXT/UTF8
Codec ID/Info : UTF-8 Plain Text
Duration : 2 h 13 min
Bit rate : 2 b/s
Count of elements : 55
Stream size : 2.81 KiB (0%)
Title : Forced
Language : Russian
Default : Yes
Forced : Yes
Text #2
ID : 7
Format : UTF-8
Codec ID : S_TEXT/UTF8
Codec ID/Info : UTF-8 Plain Text
Duration : 2 h 13 min
Bit rate : 72 b/s
Count of elements : 1753
Stream size : 70.7 KiB (0%)
Title : Full
Language : Russian
Default : No
Forced : No
Text #3
ID : 8
Format : UTF-8
Codec ID : S_TEXT/UTF8
Codec ID/Info : UTF-8 Plain Text
Duration : 2 h 13 min
Bit rate : 3 b/s
Count of elements : 71
Stream size : 3.87 KiB (0%)
Title : Forced
Language : Ukrainian
Default : No
Forced : No
Text #4
ID : 9
Format : UTF-8
Codec ID : S_TEXT/UTF8
Codec ID/Info : UTF-8 Plain Text
Duration : 2 h 13 min
Bit rate : 77 b/s
Count of elements : 1753
Stream size : 75.4 KiB (0%)
Title : Full
Language : Ukrainian
Default : No
Forced : No
Text #5
ID : 10
Format : UTF-8
Codec ID : S_TEXT/UTF8
Codec ID/Info : UTF-8 Plain Text
Duration : 2 h 11 min
Bit rate : 68 b/s
Count of elements : 2268
Stream size : 65.6 KiB (0%)
Title : SDH
Language : English
Default : No
Forced : No
Text #6
ID : 11
Format : UTF-8
Codec ID : S_TEXT/UTF8
Codec ID/Info : UTF-8 Plain Text
Duration : 2 h 11 min
Bit rate : 92 b/s
Count of elements : 2269
Stream size : 88.9 KiB (0%)
Title : SDH Colored
Language : English
Default : No
Forced : No
Menu
00:00:00.000 : en:Chapter 01
00:03:48.728 : en:Chapter 02
00:07:45.465 : en:Chapter 03
00:11:16.593 : en:Chapter 04
00:17:41.811 : en:Chapter 05
00:21:03.179 : en:Chapter 06
00:27:24.184 : en:Chapter 07
00:33:34.846 : en:Chapter 08
00:37:22.282 : en:Chapter 09
00:45:24.013 : en:Chapter 10
00:52:19.595 : en:Chapter 11
00:56:57.205 : en:Chapter 12
01:03:11.413 : en:Chapter 13
01:10:44.991 : en:Chapter 14
01:15:25.730 : en:Chapter 15
01:21:45.901 : en:Chapter 16
01:26:59.172 : en:Chapter 17
01:32:18.199 : en:Chapter 18
01:36:43.923 : en:Chapter 19
01:43:25.574 : en:Chapter 20
01:50:23.283 : en:Chapter 21
01:54:22.898 : en:Chapter 22
02:00:41.109 : en:Chapter 23
02:07:53.332 : en:Chapter 24
Download

Для того, чтобы

Богемская рапсодия / Bohemian Rhapsody (2018) UHD BDRemux 2160p | 4K | HDR | Лицензия

с нашего сайта, Вам необходимо Войти на сайт под своим логином! Если у Вас ещё нет логина, тогда Вам нужно сначала:




How to Download? · What is a torrent? · Ratings and Limitations

hobbit003

Gender:
Unknown
Longevity:
8 months 10 days
Posts:
1

Скачал вчера. Фильм останавливается на 7 секунде, далее висит статическая картинка. Cделал несколько попыток и удалил. Телевизор Samsung UE49RS8000RU.

Post 03-Apr-2019 14:20 (after 1 month 24 days)

Quote

Display posts:    

Current time is: 23-Apr 09:53

All times are UTC + 4



You cannot post new topics in this forum
You cannot reply to topics in this forum
You cannot edit your posts in this forum
You cannot delete your posts in this forum
You cannot vote in polls in this forum
You cannot attach files in this forum
You cannot download files in this forum

Скачать через торрент фильмы 4K Ultra HD 2160p бесплатно, на первом свободном torrent трекере без надоедливой рекламы. Качаем без ограничений, рейтингов и прочих трудностей. Ищите любимый сериал, у нас вы найдёте множество сериалов, фильмов, игр, музыки. Скачать торрентом не составит труда даже не опытному пользователю. Все торрент файлы доступны к скачиванию только зарегистрированному пользователю. Пройди регистрацию на freetorrent и качай по полной без ограничений. И не забудьте поделиться ссылкой на наш сайт - мы будем очень благодарны. Это даёт нам сил и заряда для жизни проекта.

Ежедневно в мир выходит столько новых картин, что уследить за всеми просто не представляется возможным. На нашем крупнейшем русскоязычном торрент трекере вы сможете без труда скачать фильмы 4к через торрент бесплатно новинки фильмов, не проходя утомительную регистрацию с подтверждением в смс, без назойливой рекламы и перехода по подозрительным ссылкам, все желаемые файлы находятся в открытом доступе и доступны к загрузке без начисления рейтинга. Скачать новинки выгодно не только в финансовом плане, любую загруженную киноленту можно посмотреть в удобное время и в высоком качестве. Самая лучшая подборка кино фильмов 60 fps | UHD 2160p | 4K утолит желание каждого киномана, каталог постоянно пополняется только лучшими релизами. У нас представлена огромная коллекция как недавно вышедших новинок, так и давно полюбившихся бестселлеров. Для того, чтобы получить файл, вам стоит лишь перейти на вкладку искомого материала и скачать нужный торрент и подождать, пока программа перенесет полнометражную картину на компьютер. Главная страница послужит путеводителем и афишей, где можно за несколько минут найти необходимое. Первый русский свободный торрент сделан с максимальным комфортом для пользователя, не нужно тратить время на изучение интерфейса. Желаем вам приятного просмотра! Постоянное обновление и пополнение - новинками популярных игр, новый и безопасный софт, мультимедиа кпк Свободный торрент трекер.