Щелкунчик и четыре королевства / The Nutcracker and the Four Realms (2018) UHD BDRemux 2160p | HDR | iTunes скачать торрент

Вы посетили страницу нашего torrent трекера и теперь имеете возможность скачать бесплатно через торрент Щелкунчик и четыре королевства / The Nutcracker and the Four Realms (2018) UHD BDRemux 2160p | HDR | iTunes в хорошем качестве. Только лучшие релизы, на свободном torrent трекере.

 

briqada ®

Gender:
Unknown
Longevity:
2 years 3 months
Posts:
2634

Информация о фильме
Название: Щелкунчик и четыре королевства
Оригинальное название: The Nutcracker and the Four Realms
Год выхода: 2018
Жанр: фэнтези, приключения, семейный
Режиссер: Лассе Халльстрём, Джо Джонстон
В ролях: Маккензи Фой, Кира Найтли, Джейден Фовора-Найт, Хелен Миррен, Морган Фриман, Мисти Коуплэнд, Эухенио Дербес, Ричард Э. Грант, Мэттью Макфэдиен, Сергей Полунин и др.
О фильме:
Получив необычный подарок на Рождество, юная Клара отправляется в захватывающее путешествие по загадочным местам: Стране Снегов, Стране Цветов и Стране Сладостей. Но девушке нужно попасть и в четвертое королевство, где ей придется столкнуться с целой армией мышей во главе с невероятно опасным шиным Королем

Страна: США
Продолжительность: 01:39:16
Перевод: Профессиональный (полное дублирование) [iTunes]
Файл
Кодек: H.265
Качество: BDRemux 2160p
Видео: HEVC, 3840x2160 (16:9), 23,976 fps, H.265, 71,7 Mbps
Аудио #1: 48 kHz, AC3, 6 ch, 384 kbps | RUS
Аудио #2: 48 kHz, Dolby TrueHD, 8 ch, 4942 kbps | ENG
Аудио #3: 48 kHz, DTS-HD MA, 8 ch, 3940 kbps | ENG
Аудио #4: 48 kHz, AC3, 6 ch, 640 kbps | ENG
Субтитры: Русские, английские

MI

General
Unique ID : 42514568534478558146575193615894764591 (0x1FFC02104E99A65A2ADB5C7D1642DC2F)
Complete name : The.Nutcracker.and.the.Four.Realms.2018.BluRay.REMUX.HEVC.HDR.2160p.mkv
Format : Matroska
Format version : Version 4
File size : 56.3 GiB
Duration : 1 h 39 min
Overall bit rate mode : Variable
Overall bit rate : 81.2 Mb/s
Encoded date : UTC 2019-02-01 06:09:48
Writing application : mkvmerge v30.1.0 (#039;Forever And More#039;) 64-bit
Writing library : libebml v1.3.6 + libmatroska v1.4.9
Attachments : poster.jpg
Video
ID : 1
Format : HEVC
Format/Info : High Efficiency Video Coding
Commercial name : HDR10
Format profile : Main 10@L5.1@High
Codec ID : V_MPEGH/ISO/HEVC
Duration : 1 h 39 min
Bit rate : 71.7 Mb/s
Width : 3 840 pixels
Height : 2 160 pixels
Display aspect ratio : 16:9
Frame rate mode : Constant
Frame rate : 23.976 (24000/1001) FPS
Color space : YUV
Chroma subsampling : 4:2:0 (Type 2)
Bit depth : 10 bits
Bits/(Pixel*Frame) : 0.360
Stream size : 49.7 GiB (88%)
Default : Yes
Forced : No
Color range : Limited
Color primaries : BT.2020
Transfer characteristics : PQ
Matrix coefficients : BT.2020 non-constant
Mastering display color pri : Display P3
Mastering display luminance : min: 0.0050 cd/m2, max: 4000 cd/m2
Maximum Content Light Level : 183 cd/m2
Maximum Frame-Average Light : 149 cd/m2
Audio #1
ID : 2
Format : AC-3
Format/Info : Audio Coding 3
Commercial name : Dolby Digital
Codec ID : A_AC3
Duration : 1 h 39 min
Bit rate mode : Constant
Bit rate : 384 kb/s
Channel(s) : 6 channels
Channel layout : L R C LFE Ls Rs
Sampling rate : 48.0 kHz
Frame rate : 31.250 FPS (1536 SPF)
Bit depth : 16 bits
Compression mode : Lossy
Delay relative to video : -15 ms
Stream size : 273 MiB (0%)
Title : Дубляж iTunes
Language : Russian
Service kind : Complete Main
Default : Yes
Forced : No
Audio #2
ID : 3
Format : MLP FBA 16-ch
Format/Info : Meridian Lossless Packing FBA with 16-channel presentation
Commercial name : Dolby TrueHD with Dolby Atmos
Codec ID : A_TRUEHD
Duration : 1 h 39 min
Bit rate mode : Variable
Bit rate : 4 942 kb/s
Maximum bit rate : 7 977 kb/s
Channel(s) : 8 channels
Channel layout : L R C LFE Ls Rs Lb Rb
Sampling rate : 48.0 kHz
Frame rate : 1 200.000 FPS (40 SPF)
Compression mode : Lossless
Stream size : 3.43 GiB (6%)
Language : English
Default : No
Forced : No
Number of dynamic objects : 13
Bed channel count : 1 channel
Bed channel configuration : LFE
Audio #3
ID : 4
Format : DTS XLL
Format/Info : Digital Theater Systems
Commercial name : DTS-HD Master Audio
Codec ID : A_DTS
Duration : 1 h 39 min
Bit rate mode : Variable
Bit rate : 3 490 kb/s
Channel(s) : 8 channels
Channel layout : C L R LFE Lb Rb Lss Rss
Sampling rate : 48.0 kHz
Frame rate : 93.750 FPS (512 SPF)
Bit depth : 24 bits
Compression mode : Lossless
Delay relative to video : -15 ms
Stream size : 2.42 GiB (4%)
Language : English
Default : No
Forced : No
Audio #4
ID : 5
Format : AC-3
Format/Info : Audio Coding 3
Commercial name : Dolby Digital
Codec ID : A_AC3
Duration : 1 h 39 min
Bit rate mode : Constant
Bit rate : 640 kb/s
Channel(s) : 6 channels
Channel layout : L R C LFE Ls Rs
Sampling rate : 48.0 kHz
Frame rate : 31.250 FPS (1536 SPF)
Bit depth : 16 bits
Compression mode : Lossy
Stream size : 454 MiB (1%)
Language : English
Service kind : Complete Main
Default : No
Forced : No
Text #1
ID : 6
Format : UTF-8
Codec ID : S_TEXT/UTF8
Codec ID/Info : UTF-8 Plain Text
Duration : 1 h 27 min
Bit rate : 72 b/s
Count of elements : 1043
Stream size : 46.6 KiB (0%)
Title : Полные
Language : Russian
Default : No
Forced : No
Text #2
ID : 7
Format : UTF-8
Codec ID : S_TEXT/UTF8
Codec ID/Info : UTF-8 Plain Text
Duration : 1 h 36 min
Bit rate : 72 b/s
Count of elements : 1339
Stream size : 51.4 KiB (0%)
Title : Полные SDH
Language : Russian
Default : No
Forced : No
Text #3
ID : 8
Format : UTF-8
Codec ID : S_TEXT/UTF8
Codec ID/Info : UTF-8 Plain Text
Duration : 1 h 27 min
Bit rate : 43 b/s
Count of elements : 1098
Stream size : 27.7 KiB (0%)
Title : Full
Language : English
Default : Yes
Forced : No
Text #4
ID : 9
Format : UTF-8
Codec ID : S_TEXT/UTF8
Codec ID/Info : UTF-8 Plain Text
Duration : 1 h 36 min
Bit rate : 45 b/s
Count of elements : 1340
Stream size : 32.4 KiB (0%)
Title : Full SDH
Language : English
Default : No
Forced : No
Menu
00:00:00.000 : :Chapter 1
00:08:39.101 : :Chapter 2
00:16:47.256 : :Chapter 3
00:25:37.744 : :Chapter 4
00:34:20.892 : :Chapter 5
00:43:28.397 : :Chapter 6
00:48:31.992 : :Chapter 7
00:56:07.655 : :Chapter 8
00:59:09.546 : :Chapter 9
01:04:57.310 : :Chapter 10
01:11:49.722 : :Chapter 11
01:18:10.519 : :Chapter 12
01:22:04.002 : :Chapter 13
01:30:06.275 : :Chapter 14

Скриншоты

Download

Для того, чтобы

Щелкунчик и четыре королевства / The Nutcracker and the Four Realms (2018) UHD BDRemux 2160p | HDR | iTunes

с нашего сайта, Вам необходимо Войти на сайт под своим логином! Если у Вас ещё нет логина, тогда Вам нужно сначала:




How to Download? · What is a torrent? · Ratings and Limitations

Display posts:    

Current time is: 23-Apr 10:11

All times are UTC + 4



You cannot post new topics in this forum
You cannot reply to topics in this forum
You cannot edit your posts in this forum
You cannot delete your posts in this forum
You cannot vote in polls in this forum
You cannot attach files in this forum
You cannot download files in this forum

Скачать через торрент фильмы 4K Ultra HD 2160p бесплатно, на первом свободном torrent трекере без надоедливой рекламы. Качаем без ограничений, рейтингов и прочих трудностей. Ищите любимый сериал, у нас вы найдёте множество сериалов, фильмов, игр, музыки. Скачать торрентом не составит труда даже не опытному пользователю. Все торрент файлы доступны к скачиванию только зарегистрированному пользователю. Пройди регистрацию на freetorrent и качай по полной без ограничений. И не забудьте поделиться ссылкой на наш сайт - мы будем очень благодарны. Это даёт нам сил и заряда для жизни проекта.

Ежедневно в мир выходит столько новых картин, что уследить за всеми просто не представляется возможным. На нашем крупнейшем русскоязычном торрент трекере вы сможете без труда скачать фильмы 4к через торрент бесплатно новинки фильмов, не проходя утомительную регистрацию с подтверждением в смс, без назойливой рекламы и перехода по подозрительным ссылкам, все желаемые файлы находятся в открытом доступе и доступны к загрузке без начисления рейтинга. Скачать новинки выгодно не только в финансовом плане, любую загруженную киноленту можно посмотреть в удобное время и в высоком качестве. Самая лучшая подборка кино фильмов 60 fps | UHD 2160p | 4K утолит желание каждого киномана, каталог постоянно пополняется только лучшими релизами. У нас представлена огромная коллекция как недавно вышедших новинок, так и давно полюбившихся бестселлеров. Для того, чтобы получить файл, вам стоит лишь перейти на вкладку искомого материала и скачать нужный торрент и подождать, пока программа перенесет полнометражную картину на компьютер. Главная страница послужит путеводителем и афишей, где можно за несколько минут найти необходимое. Первый русский свободный торрент сделан с максимальным комфортом для пользователя, не нужно тратить время на изучение интерфейса. Желаем вам приятного просмотра! Постоянное обновление и пополнение - новинками популярных игр, новый и безопасный софт, мультимедиа кпк Свободный торрент трекер.