Титаник / Titanic (1997) BDRip 720p от k.e.n & MegaPeer | D, P, P2, A | Open Matte скачать торрент

Вы посетили страницу нашего torrent трекера и теперь имеете возможность скачать бесплатно через торрент Титаник / Titanic (1997) BDRip 720p от k.e.n & MegaPeer | D, P, P2, A | Open Matte в хорошем качестве. Только лучшие релизы, на свободном torrent трекере.

 

rico ®

Gender:
Male
Longevity:
2 years 7 months
Posts:
2412

Информация о фильме
Название: Титаник
Оригинальное название: Titanic
Год выхода: 1997
Жанр: Драма, катастрофа, мелодрама
Режиссер: Джеймс Кэмерон
В ролях: Леонардо ДиКаприо, Билл Пэкстон, Бернард Хилл, Фрэнсис Фишер, Кейт Уинслет, Билли Зейн, Кэти Бэйтс, Джонатан Хайд, Дэвид Уорнер, Йоан Граффадд, Виктор Гарбер, Сьюзи Эймис, Марк Линдсэй Чэпмэн, Дэнни Нуччи, Глория Стюарт, Брендан Коннолли, Джеймс Кэмерон
О фильме:
Титаник... Она ступила на его грандиозную палубу, зная, что лайнер везет ее в будущую тюрьму, имя которой - брак по расчету... Он в последний момент чудом оказался на уровне кают третьего класса, но свято верил, что этот пароход доставит его в будущее, которое в его собственных руках! Кто же мог тогда предположить, что будущее самого лайнера уже предопределено? Но в мире все-же есть непотопляемые вещи... И может быть одна из них - это простая человеческая память?..

Страна: США
Студия: 20th Century Fox, Lightstorm Entertainment, Paramount Pictures
Продолжительность: 03:14:54
Перевод: Дублированный, профессиональный (многоголосый, закадровый), профессиональный (двухголосый, закадровый), авторский (одноголосый, закадровый)
Файл
Кодек: H.264
Качество: BDRip 720p
Видео: AVC, 1280x720 (16:9), 23.976 fps, 7 027 Kbps (0.318 bit/pixel)
Аудио #1: AC-3, 48.0 KHz, 6 ch, 448 Kbps, CBR (Russian) - дублированный (1997 г.)
Аудио #2: AC-3, 48.0 KHz, 6 ch, 448 Kbps, CBR (Russian) - дублированный (2012 г.)
Аудио #3: AC-3, 48.0 KHz, 6 ch, 384 Kbps, CBR (Russian) - многоголосый (Киномания)
Аудио #4: AC-3, 48.0 KHz, 6 ch, 448 Kbps, CBR (Russian) - двухголосый (П.Гланц и И.Королёва)
Аудио #5: AC-3, 48.0 KHz, 6 ch, 448 Kbps, CBR (Russian) - двухголосый (НТВ+)
Аудио #6: AC-3, 48.0 KHz, 6 ch, 448 Kbps, CBR (Russian) - авторский, Ю.Сербин
Аудио #7: AC-3, 48.0 KHz, 6 ch, 448 Kbps, CBR (Russian) - авторский, А.Гаврилов
Аудио #8: AC-3, 48.0 KHz, 6 ch, 448 Kbps, CBR (Russian) - авторский, Ю.Живов
Аудио #9: AC-3, 48.0 KHz, 2 ch, 192 Kbps, CBR (Russian) - авторский, А.Кашкин
Аудио #10: AC-3, 48.0 KHz, 2 ch, 192 Kbps, CBR (Russian) - авторский, С.Визгунов
Аудио #11: AC-3, 48.0 KHz, 2 ch, 192 Kbps, CBR (Russian) - авторский, Н.Антонов
Аудио #12: AC-3, 48.0 KHz, 6 ch, 448 Kbps, CBR (English) - оригинал
Субтитры: Russian, Russian, Russian, English

Скриншоты:

x264

x264 [info]: frame I:1997 Avg QP:14.63 size:142649 PSNR Mean Y:48.03 U:50.57 V:51.56 Avg:48.68 Global:47.76
x264 [info]: frame P:68105 Avg QP:17.52 size: 63683 PSNR Mean Y:45.74 U:48.98 V:50.37 Avg:46.49 Global:45.73
x264 [info]: frame B:210289 Avg QP:19.15 size: 26849 PSNR Mean Y:44.81 U:47.84 V:49.50 Avg:45.60 Global:44.70

MediaInfo

Полное имя : D:Титаник.1997 (Л.ДиКаприо, К.Уинслет) Open Matte.mkv
Формат : Matroska
Версия формата : Version 2
Размер файла : 15,8 Гбайт
Продолжительность : 3 ч. 14 м.
Общий поток : 11,6 Мбит/сек
Дата кодирования : UTC 2019-01-12 20:13:48
Программа кодирования : mkvmerge v5.3.0 (#039;I could have danced#039;) built on Feb 9 2012 10:38:07
Библиотека кодирования : libebml v1.2.3 + libmatroska v1.3.0
Обложка : Yes
Attachments : cover.jpg
Видео
Идентификатор : 1
Формат : AVC
Формат/Информация : Advanced Video Codec
Профиль формата : High@L4.1
Параметр CABAC формата : Да
Параметр ReFrames формата : 9 кадров
Идентификатор кодека : V_MPEG4/ISO/AVC
Продолжительность : 3 ч. 14 м.
Битрейт : 7027 Кбит/сек
Ширина : 1280 пикселей
Высота : 720 пикселей
Соотношение сторон : 16:9
Режим частоты кадров : Постоянный
Частота кадров : 23,976 (24000/1001) кадра/сек
Цветовое пространство : YUV
Субдискретизация насыщенности : 4:2:0
Битовая глубина : 8 бит
Тип развёртки : Прогрессивная
Бит/(Пиксели*Кадры) : 0.318
Размер потока : 9,25 Гбайт (59%)
Библиотека кодирования : x264 core 146 r2538 121396c
Настройки программы : cabac=1 / ref=9 / deblock=1:-3:-3 / analyse=0x3:0x133 / me=umh / subme=11 / psy=1 / psy_rd=1.00:0.00 / mixed_ref=1 / me_range=32 / chroma_me=1 / trellis=2 / 8x8dct=1 / cqm=0 / deadzone=21,11 / fast_pskip=0 / chroma_qp_offset=-2 / threads=12 / lookahead_threads=3 / sliced_threads=0 / nr=0 / decimate=0 / interlaced=0 / bluray_compat=0 / constrained_intra=0 / bframes=9 / b_pyramid=2 / b_adapt=2 / b_bias=0 / direct=3 / weightb=1 / open_gop=0 / weightp=2 / keyint=240 / keyint_min=23 / scenecut=40 / intra_refresh=0 / rc=2pass / mbtree=0 / bitrate=7027 / ratetol=1.0 / qcomp=0.60 / qpmin=0 / qpmax=69 / qpstep=4 / cplxblur=20.0 / qblur=0.5 / ip_ratio=1.40 / pb_ratio=1.30 / aq=3:0.90
Язык : English
Default : Да
Forced : Нет
Аудио #1
Идентификатор : 2
Формат : AC-3
Формат/Информация : Audio Coding 3
Расширение режима : CM (complete main)
Параметр Endianness формата : Big
Идентификатор кодека : A_AC3
Продолжительность : 3 ч. 14 м.
Вид битрейта : Постоянный
Битрейт : 448 Кбит/сек
Каналы : 6 каналов
Расположение каналов : Front: L C R, Side: L R, LFE
Частота : 48,0 КГц
Частота кадров : 31,250 кадров/сек (1536 spf)
Битовая глубина : 16 бит
Метод сжатия : С потерями
Размер потока : 625 Мбайт (4%)
Заголовок : Дублированный (1997 г.)
Язык : Russian
Default : Да
Forced : Да
Аудио #2
Идентификатор : 3
Формат : AC-3
Формат/Информация : Audio Coding 3
Расширение режима : CM (complete main)
Параметр Endianness формата : Big
Идентификатор кодека : A_AC3
Продолжительность : 3 ч. 14 м.
Вид битрейта : Постоянный
Битрейт : 448 Кбит/сек
Каналы : 6 каналов
Расположение каналов : Front: L C R, Side: L R, LFE
Частота : 48,0 КГц
Частота кадров : 31,250 кадров/сек (1536 spf)
Битовая глубина : 16 бит
Метод сжатия : С потерями
Размер потока : 625 Мбайт (4%)
Заголовок : Дублированный (2012 г.)
Язык : Russian
Default : Нет
Forced : Нет
Аудио #3
Идентификатор : 4
Формат : AC-3
Формат/Информация : Audio Coding 3
Расширение режима : CM (complete main)
Параметр Endianness формата : Big
Идентификатор кодека : A_AC3
Продолжительность : 3 ч. 14 м.
Вид битрейта : Постоянный
Битрейт : 384 Кбит/сек
Каналы : 6 каналов
Расположение каналов : Front: L C R, Side: L R, LFE
Частота : 48,0 КГц
Частота кадров : 31,250 кадров/сек (1536 spf)
Битовая глубина : 16 бит
Метод сжатия : С потерями
Размер потока : 535 Мбайт (3%)
Заголовок : Многоголосый (Киномания)
Язык : Russian
Default : Нет
Forced : Нет
Аудио #4
Идентификатор : 5
Формат : AC-3
Формат/Информация : Audio Coding 3
Расширение режима : CM (complete main)
Параметр Endianness формата : Big
Идентификатор кодека : A_AC3
Продолжительность : 3 ч. 14 м.
Вид битрейта : Постоянный
Битрейт : 448 Кбит/сек
Каналы : 6 каналов
Расположение каналов : Front: L C R, Side: L R, LFE
Частота : 48,0 КГц
Частота кадров : 31,250 кадров/сек (1536 spf)
Битовая глубина : 16 бит
Метод сжатия : С потерями
Размер потока : 625 Мбайт (4%)
Заголовок : Двухголосый (Гланц и Королева)
Язык : Russian
Default : Нет
Forced : Нет
Аудио #5
Идентификатор : 6
Формат : AC-3
Формат/Информация : Audio Coding 3
Расширение режима : CM (complete main)
Параметр Endianness формата : Big
Идентификатор кодека : A_AC3
Продолжительность : 3 ч. 14 м.
Вид битрейта : Постоянный
Битрейт : 448 Кбит/сек
Каналы : 6 каналов
Расположение каналов : Front: L C R, Side: L R, LFE
Частота : 48,0 КГц
Частота кадров : 31,250 кадров/сек (1536 spf)
Битовая глубина : 16 бит
Метод сжатия : С потерями
Размер потока : 625 Мбайт (4%)
Заголовок : Двухголосый (НТВ+)
Язык : Russian
Default : Нет
Forced : Нет
Аудио #6
Идентификатор : 7
Формат : AC-3
Формат/Информация : Audio Coding 3
Расширение режима : CM (complete main)
Параметр Endianness формата : Big
Идентификатор кодека : A_AC3
Продолжительность : 3 ч. 14 м.
Вид битрейта : Постоянный
Битрейт : 448 Кбит/сек
Каналы : 6 каналов
Расположение каналов : Front: L C R, Side: L R, LFE
Частота : 48,0 КГц
Частота кадров : 31,250 кадров/сек (1536 spf)
Битовая глубина : 16 бит
Метод сжатия : С потерями
Размер потока : 625 Мбайт (4%)
Заголовок : Авторский Ю.Сербин
Язык : Russian
Default : Нет
Forced : Нет
Аудио #7
Идентификатор : 8
Формат : AC-3
Формат/Информация : Audio Coding 3
Расширение режима : CM (complete main)
Параметр Endianness формата : Big
Идентификатор кодека : A_AC3
Продолжительность : 3 ч. 14 м.
Вид битрейта : Постоянный
Битрейт : 448 Кбит/сек
Каналы : 6 каналов
Расположение каналов : Front: L C R, Side: L R, LFE
Частота : 48,0 КГц
Частота кадров : 31,250 кадров/сек (1536 spf)
Битовая глубина : 16 бит
Метод сжатия : С потерями
Размер потока : 625 Мбайт (4%)
Заголовок : Авторский А.Гаврилов
Язык : Russian
Default : Нет
Forced : Нет
Аудио #8
Идентификатор : 9
Формат : AC-3
Формат/Информация : Audio Coding 3
Расширение режима : CM (complete main)
Параметр Endianness формата : Big
Идентификатор кодека : A_AC3
Продолжительность : 3 ч. 14 м.
Вид битрейта : Постоянный
Битрейт : 448 Кбит/сек
Каналы : 6 каналов
Расположение каналов : Front: L C R, Side: L R, LFE
Частота : 48,0 КГц
Частота кадров : 31,250 кадров/сек (1536 spf)
Битовая глубина : 16 бит
Метод сжатия : С потерями
Размер потока : 625 Мбайт (4%)
Заголовок : Авторский Ю.Живов
Язык : Russian
Default : Нет
Forced : Нет
Аудио #9
Идентификатор : 10
Формат : AC-3
Формат/Информация : Audio Coding 3
Расширение режима : CM (complete main)
Параметр Endianness формата : Big
Идентификатор кодека : A_AC3
Продолжительность : 3 ч. 14 м.
Вид битрейта : Постоянный
Битрейт : 192 Кбит/сек
Каналы : 2 канала
Расположение каналов : Front: L R
Частота : 48,0 КГц
Частота кадров : 31,250 кадров/сек (1536 spf)
Битовая глубина : 16 бит
Метод сжатия : С потерями
Размер потока : 268 Мбайт (2%)
Заголовок : Авторский А.Кашкин
Язык : Russian
Default : Нет
Forced : Нет
Аудио #10
Идентификатор : 11
Формат : AC-3
Формат/Информация : Audio Coding 3
Расширение режима : CM (complete main)
Параметр Endianness формата : Big
Идентификатор кодека : A_AC3
Продолжительность : 3 ч. 14 м.
Вид битрейта : Постоянный
Битрейт : 192 Кбит/сек
Каналы : 2 канала
Расположение каналов : Front: L R
Частота : 48,0 КГц
Частота кадров : 31,250 кадров/сек (1536 spf)
Битовая глубина : 16 бит
Метод сжатия : С потерями
Размер потока : 268 Мбайт (2%)
Заголовок : Авторский С.Визгунов
Язык : Russian
Default : Нет
Forced : Нет
Аудио #11
Идентификатор : 12
Формат : AC-3
Формат/Информация : Audio Coding 3
Расширение режима : CM (complete main)
Параметр Endianness формата : Big
Идентификатор кодека : A_AC3
Продолжительность : 3 ч. 14 м.
Вид битрейта : Постоянный
Битрейт : 192 Кбит/сек
Каналы : 2 канала
Расположение каналов : Front: L R
Частота : 48,0 КГц
Частота кадров : 31,250 кадров/сек (1536 spf)
Битовая глубина : 16 бит
Метод сжатия : С потерями
Размер потока : 268 Мбайт (2%)
Заголовок : Авторский Н.Антонов
Язык : Russian
Default : Нет
Forced : Нет
Аудио #12
Идентификатор : 13
Формат : AC-3
Формат/Информация : Audio Coding 3
Расширение режима : CM (complete main)
Параметр Endianness формата : Big
Идентификатор кодека : A_AC3
Продолжительность : 3 ч. 14 м.
Вид битрейта : Постоянный
Битрейт : 448 Кбит/сек
Каналы : 6 каналов
Расположение каналов : Front: L C R, Side: L R, LFE
Частота : 48,0 КГц
Частота кадров : 31,250 кадров/сек (1536 spf)
Битовая глубина : 16 бит
Метод сжатия : С потерями
Размер потока : 625 Мбайт (4%)
Заголовок : Оригинал
Язык : English
Default : Нет
Forced : Нет
Текст #1
Идентификатор : 14
Формат : UTF-8
Идентификатор кодека : S_TEXT/UTF8
Идентификатор кодека/Информация : UTF-8 Plain Text
Заголовок : forced, Blu-ray CEE
Язык : Russian
Default : Да
Forced : Нет
Текст #2
Идентификатор : 15
Формат : UTF-8
Идентификатор кодека : S_TEXT/UTF8
Идентификатор кодека/Информация : UTF-8 Plain Text
Заголовок : full, Blu-ray CEE
Язык : Russian
Default : Нет
Forced : Нет
Текст #3
Идентификатор : 16
Формат : UTF-8
Идентификатор кодека : S_TEXT/UTF8
Идентификатор кодека/Информация : UTF-8 Plain Text
Заголовок : full, R5
Язык : Russian
Default : Нет
Forced : Нет
Текст #4
Идентификатор : 17
Формат : UTF-8
Идентификатор кодека : S_TEXT/UTF8
Идентификатор кодека/Информация : UTF-8 Plain Text
Заголовок : full
Язык : English
Default : Нет
Forced : Нет
Меню
00:00:00.000 : en:00:00:00.000
00:01:24.376 : en:00:01:24.376
00:04:39.988 : en:00:04:39.988
00:08:26.131 : en:00:08:26.131
00:10:46.771 : en:00:10:46.771
00:12:52.647 : en:00:12:52.647
00:16:52.428 : en:00:16:52.428
00:20:07.748 : en:00:20:07.748
00:23:38.876 : en:00:23:38.876
00:26:26.543 : en:00:26:26.543
00:29:03.366 : en:00:29:03.366
00:29:37.526 : en:00:29:37.526
00:34:59.931 : en:00:34:59.931
00:36:48.623 : en:00:36:48.623
00:42:59.160 : en:00:42:59.160
00:45:26.098 : en:00:45:26.098
00:47:11.620 : en:00:47:11.620
00:53:33.043 : en:00:53:33.043
00:56:47.988 : en:00:56:47.988
01:05:32.053 : en:01:05:32.053
01:10:19.965 : en:01:10:19.965
01:14:06.358 : en:01:14:06.358
01:16:10.691 : en:01:16:10.691
01:19:59.044 : en:01:19:59.044
01:22:50.507 : en:01:22:50.507
01:23:40.056 : en:01:23:40.056
01:28:21.629 : en:01:28:21.629
01:29:19.854 : en:01:29:19.854
01:32:52.275 : en:01:32:52.275
01:36:59.104 : en:01:36:59.104
01:44:41.149 : en:01:44:41.149
01:46:21.041 : en:01:46:21.041
01:47:58.847 : en:01:47:58.847
01:50:11.104 : en:01:50:11.104
01:52:21.401 : en:01:52:21.401
01:53:54.327 : en:01:53:54.327
01:55:21.831 : en:01:55:21.831
01:56:10.880 : en:01:56:10.880
01:57:53.232 : en:01:57:53.232
02:06:38.340 : en:02:06:38.340
02:08:49.972 : en:02:08:49.972
02:11:22.082 : en:02:11:22.082
02:15:42.550 : en:02:15:42.550
02:19:43.458 : en:02:19:43.458
02:21:24.559 : en:02:21:24.559
02:25:28.761 : en:02:25:28.761
02:27:28.422 : en:02:27:28.422
02:29:07.271 : en:02:29:07.271
02:29:56.695 : en:02:29:56.695
02:33:31.535 : en:02:33:31.535
02:36:52.360 : en:02:36:52.360
02:38:33.878 : en:02:38:33.878
02:40:34.666 : en:02:40:34.666
02:45:00.640 : en:02:45:00.640
02:47:48.808 : en:02:47:48.808
02:49:22.526 : en:02:49:22.526
02:52:09.610 : en:02:52:09.610
02:53:41.327 : en:02:53:41.327
02:57:53.495 : en:02:57:53.495
02:59:35.305 : en:02:59:35.305
03:01:29.252 : en:03:01:29.252
03:03:13.648 : en:03:03:13.648
03:04:57.877 : en:03:04:57.877
03:07:19.644 : en:03:07:19.644
Download

Для того, чтобы

Титаник / Titanic (1997) BDRip 720p от k.e.n & MegaPeer | D, P, P2, A | Open Matte

с нашего сайта, Вам необходимо Войти на сайт под своим логином! Если у Вас ещё нет логина, тогда Вам нужно сначала:




How to Download? · What is a torrent? · Ratings and Limitations

Display posts:    

Current time is: 20-Apr 04:52

All times are UTC + 4



You cannot post new topics in this forum
You cannot reply to topics in this forum
You cannot edit your posts in this forum
You cannot delete your posts in this forum
You cannot vote in polls in this forum
You cannot attach files in this forum
You cannot download files in this forum

Скачать через торрент фильмы 4K Ultra HD 2160p бесплатно, на первом свободном torrent трекере без надоедливой рекламы. Качаем без ограничений, рейтингов и прочих трудностей. Ищите любимый сериал, у нас вы найдёте множество сериалов, фильмов, игр, музыки. Скачать торрентом не составит труда даже не опытному пользователю. Все торрент файлы доступны к скачиванию только зарегистрированному пользователю. Пройди регистрацию на freetorrent и качай по полной без ограничений. И не забудьте поделиться ссылкой на наш сайт - мы будем очень благодарны. Это даёт нам сил и заряда для жизни проекта.

Ежедневно в мир выходит столько новых картин, что уследить за всеми просто не представляется возможным. На нашем крупнейшем русскоязычном торрент трекере вы сможете без труда скачать фильмы 4к через торрент бесплатно новинки фильмов, не проходя утомительную регистрацию с подтверждением в смс, без назойливой рекламы и перехода по подозрительным ссылкам, все желаемые файлы находятся в открытом доступе и доступны к загрузке без начисления рейтинга. Скачать новинки выгодно не только в финансовом плане, любую загруженную киноленту можно посмотреть в удобное время и в высоком качестве. Самая лучшая подборка кино фильмов 60 fps | UHD 2160p | 4K утолит желание каждого киномана, каталог постоянно пополняется только лучшими релизами. У нас представлена огромная коллекция как недавно вышедших новинок, так и давно полюбившихся бестселлеров. Для того, чтобы получить файл, вам стоит лишь перейти на вкладку искомого материала и скачать нужный торрент и подождать, пока программа перенесет полнометражную картину на компьютер. Главная страница послужит путеводителем и афишей, где можно за несколько минут найти необходимое. Первый русский свободный торрент сделан с максимальным комфортом для пользователя, не нужно тратить время на изучение интерфейса. Желаем вам приятного просмотра! Постоянное обновление и пополнение - новинками популярных игр, новый и безопасный софт, мультимедиа кпк Свободный торрент трекер.