Малила: Прощальный цветок / Malila: The Farewell Flower (2017) DVDRip-AVC | L2 скачать торрент

Вы посетили страницу нашего torrent трекера и теперь имеете возможность скачать бесплатно через торрент Малила: Прощальный цветок / Malila: The Farewell Flower (2017) DVDRip-AVC | L2 в хорошем качестве. Только лучшие релизы, на свободном torrent трекере.

 

leerik ®

Gender:
Unknown
Longevity:
2 years 6 months
Posts:
7343


Информация о фильме
Название: Малила: Прощальный цветок
Оригинальное название: Malila: The Farewell Flower
Год выхода: 2017
Жанр: Драма
Режиссер: Ануча Боньяватана
В ролях: Суколлават Канарот, Анучит Сапанпонг, Сумрет Муенгпу
О фильме:
Герой фильма красив и атлетически сложен, что позволяет ему менять женщин как перчатки. Однако вскоре беззаботная жизнь закончится. Встреча со старым другом направит его жизнь в несколько иное русло.....

Страна: Таиланд
Продолжительность: 01:36:03
Перевод: Любительский (двухголосый закадровый) | HiWay Grope
Файл
Кодек: MPEG-4 AVC/x.264
Качество: DVDRip-AVC
Видео: 720x388, 23.976 fps, ~1585 kbps, 0.237 bit/pixel
Звук:
Аудио rus: AC3, 48 kHz, 2 ch, 192 Kbps
Субтитры: отсутствуют
Реклама: присутствует
Семпл

MediaInfo:

General
Unique ID : 70135560260475231221809290261470611615 (0x34C39E18E259AFDE8C1A1FAF39D7889F)
Complete name : D:Malila.The.Farewell.Flower.2017.DVDRip-AVC.HiWayGropeMalila.The.Farewell.Flower.2017.DVDRip-AVC.HiWayGrope.mkv
Format : Matroska
Format version : Version 4
File size : 1.19 GiB
Duration : 1 h 36 min
Overall bit rate : 1 779 kb/s
Encoded date : UTC 2019-01-12 10:01:44
Writing application : mkvmerge v30.0.0 (#039;Interstellar#039;) 64-bit
Writing library : libebml v1.3.6 + libmatroska v1.4.9
Video
ID : 1
Format : AVC
Format/Info : Advanced Video Codec
Format profile : Main@L4.1
Format settings : CABAC / 4 Ref Frames
Format settings, CABAC : Yes
Format settings, RefFrames : 4 frames
Codec ID : V_MPEG4/ISO/AVC
Duration : 1 h 36 min
Bit rate : 1 585 kb/s
Width : 720 pixels
Height : 388 pixels
Display aspect ratio : 1.85:1
Frame rate mode : Constant
Frame rate : 23.976 (24000/1001) FPS
Standard : NTSC
Color space : YUV
Chroma subsampling : 4:2:0
Bit depth : 8 bits
Scan type : Progressive
Bits/(Pixel*Frame) : 0.237
Stream size : 1.06 GiB (89%)
Language : English
Default : Yes
Forced : No
Color range : Limited
Color primaries : BT.601 NTSC
Transfer characteristics : BT.601
Matrix coefficients : BT.601
Audio
ID : 2
Format : AC-3
Format/Info : Audio Coding 3
Commercial name : Dolby Digital
Codec ID : A_AC3
Duration : 1 h 36 min
Bit rate mode : Constant
Bit rate : 192 kb/s
Channel(s) : 2 channels
Channel layout : L R
Sampling rate : 48.0 kHz
Frame rate : 31.250 FPS (1536 SPF)
Bit depth : 16 bits
Compression mode : Lossy
Stream size : 132 MiB (11%)
Language : Russian
Service kind : Complete Main
Default : Yes
Forced : No

Скриншоты

HiWay Grope
Download

Для того, чтобы

Малила: Прощальный цветок / Malila: The Farewell Flower (2017) DVDRip-AVC | L2

с нашего сайта, Вам необходимо Войти на сайт под своим логином! Если у Вас ещё нет логина, тогда Вам нужно сначала:




How to Download? · What is a torrent? · Ratings and Limitations

Display posts:    

Current time is: 20-Apr 04:34

All times are UTC + 4



You cannot post new topics in this forum
You cannot reply to topics in this forum
You cannot edit your posts in this forum
You cannot delete your posts in this forum
You cannot vote in polls in this forum
You cannot attach files in this forum
You cannot download files in this forum

Скачать через торрент фильмы 4K Ultra HD 2160p бесплатно, на первом свободном torrent трекере без надоедливой рекламы. Качаем без ограничений, рейтингов и прочих трудностей. Ищите любимый сериал, у нас вы найдёте множество сериалов, фильмов, игр, музыки. Скачать торрентом не составит труда даже не опытному пользователю. Все торрент файлы доступны к скачиванию только зарегистрированному пользователю. Пройди регистрацию на freetorrent и качай по полной без ограничений. И не забудьте поделиться ссылкой на наш сайт - мы будем очень благодарны. Это даёт нам сил и заряда для жизни проекта.

Ежедневно в мир выходит столько новых картин, что уследить за всеми просто не представляется возможным. На нашем крупнейшем русскоязычном торрент трекере вы сможете без труда скачать фильмы 4к через торрент бесплатно новинки фильмов, не проходя утомительную регистрацию с подтверждением в смс, без назойливой рекламы и перехода по подозрительным ссылкам, все желаемые файлы находятся в открытом доступе и доступны к загрузке без начисления рейтинга. Скачать новинки выгодно не только в финансовом плане, любую загруженную киноленту можно посмотреть в удобное время и в высоком качестве. Самая лучшая подборка кино фильмов 60 fps | UHD 2160p | 4K утолит желание каждого киномана, каталог постоянно пополняется только лучшими релизами. У нас представлена огромная коллекция как недавно вышедших новинок, так и давно полюбившихся бестселлеров. Для того, чтобы получить файл, вам стоит лишь перейти на вкладку искомого материала и скачать нужный торрент и подождать, пока программа перенесет полнометражную картину на компьютер. Главная страница послужит путеводителем и афишей, где можно за несколько минут найти необходимое. Первый русский свободный торрент сделан с максимальным комфортом для пользователя, не нужно тратить время на изучение интерфейса. Желаем вам приятного просмотра! Постоянное обновление и пополнение - новинками популярных игр, новый и безопасный софт, мультимедиа кпк Свободный торрент трекер.